\m/ 80's metal \m/

Информационно-аналитический форум "80 см пыли" (In Search We Trust) "У нас никто никуда не спешит"
Me For You - http://me-4u.com
It is currently 20 Nov 2018

All times are UTC + 3 hours

Spoiler
Chat - temporary registration for foreign users (please leave your application here)







Post new topic Reply to topic  [ 5 posts ] 
Author Message
 
PostPosted: 26 Feb 2010 
труъ антисионист
User avatar
Joined: 01 Aug 2007
Posts: 4541
Lоcаtion: Откуда и большинство из нас
Age: 37
Name: Дядя Вова
Image
Группа: Skitzo
Альбом: Five Point Containment
Год: 2007
Лейбл: Open Grave Records
Стиль: Thrash Metal
Страна: Пиндостан
Формат: Flac / Log / Cue
Размер: 448 Mb

******************************************************************************

Line Up:

Lance Ozanix - Vocals, Guitar
Nate Clark - Bass, Vocals
Mike Carli - Drums
Scott Fuller - Drums, Vocals



Tracks:
01. Curse Of The Phoenix (4:50)
02. Gag Like A Maggot (4:18)
03. Metallic Tyrants (6:24)
04. Vengeance Is Mine (5:44)
05. Stab Her Goodnight (3:47)
06. Head Of Laci (3:26)
07. Crimson Executioner (6:26)
08. Messiah Of Evil (2:14)
09. We Are The Dead (5:56)
10. Breeding The Disease (3:22)
11. Catacombs (4:57)
12. Iron Fist (2:22)


LOG
Exact Audio Copy V0.99 prebeta 3 from 28. July 2007

EAC extraction logfile from 26. February 2010, 13:02

Skitzo / Five Point Containment

Used drive : TEAC CD-W552G Adapter: 0 ID: 2

Read mode : Secure
Utilize accurate stream : Yes
Defeat audio cache : Yes
Make use of C2 pointers : No

Read offset correction : 6
Overread into Lead-In and Lead-Out : No
Fill up missing offset samples with silence : Yes
Delete leading and trailing silent blocks : No
Null samples used in CRC calculations : Yes
Used interface : Native Win32 interface for Win NT & 2000

Used output format : Internal WAV Routines
Sample format : 44.100 Hz; 16 Bit; Stereo


TOC of the extracted CD

Track | Start | Length | Start sector | End sector
---------------------------------------------------------
1 | 0:00.00 | 4:50.12 | 0 | 21761
2 | 4:50.12 | 4:17.62 | 21762 | 41098
3 | 9:07.74 | 6:23.62 | 41099 | 69885
4 | 15:31.61 | 5:44.21 | 69886 | 95706
5 | 21:16.07 | 3:46.57 | 95707 | 112713
6 | 25:02.64 | 3:26.25 | 112714 | 128188
7 | 28:29.14 | 6:25.42 | 128189 | 157105
8 | 34:54.56 | 2:14.20 | 157106 | 167175
9 | 37:09.01 | 5:55.57 | 167176 | 193857
10 | 43:04.58 | 3:22.21 | 193858 | 209028
11 | 46:27.04 | 4:57.22 | 209029 | 231325
12 | 51:24.26 | 2:22.34 | 231326 | 242009


Range status and errors

Selected range

Filename H:\Glot\Skitzo - Five Point Containment.wav

Peak level 98.8 %
Range quality 100.0 %
Test CRC 13FD1F30
Copy CRC 13FD1F30
Copy OK

No errors occurred


AccurateRip summary

Track 1 not present in database
Track 2 not present in database
Track 3 not present in database
Track 4 not present in database
Track 5 not present in database
Track 6 not present in database
Track 7 not present in database
Track 8 not present in database
Track 9 not present in database
Track 10 not present in database
Track 11 not present in database
Track 12 not present in database

None of the tracks are present in the AccurateRip database

End of status report


[youtube]<object width="425" height="344"><param name="movie" value="http://www.youtube.com/v/duMtIbFPudM&hl=ru_RU&fs=1&"></param><param name="allowFullScreen" value="true"></param><param name="allowscriptaccess" value="always"></param><embed src="http://www.youtube.com/v/duMtIbFPudM&hl=ru_RU&fs=1&" type="application/x-shockwave-flash" allowscriptaccess="always" allowfullscreen="true" width="425" height="344"></embed></object>[/youtube]

===================================DOWNLOAD========================================

Skitzo - Five Point Containment.rar

_________________
Image
Image


Top
 Profile  
 
 
PostPosted: 26 Feb 2010 
Хиппей (support team)
User avatar
Joined: 30 Jul 2007
Posts: 108205
Lоcаtion: Киев (Kyiv, UA)
Age: 45
Name: Andrey
:thanx:

_________________


Top
 Profile E-mail  
 
 
PostPosted: 26 Feb 2010 
Прокъмитолист
User avatar
Joined: 12 Aug 2007
Posts: 6504
Lоcаtion: Санктъ-Петербуркъ
Age: 51
Name: Олекъ
уже увидел на ММТ. тока не понял:

Quote:
Skitzo - Five Point Containment.flac Folder.jpg
Skitzo - Five Point Containment.cue
Skitzo - Five Point Containment.log
File0007.jpg
File0006.JPG
File0005.JPG
File0004.JPG
File0003.JPG
File0002.JPG
File0001.JPG

Quote:
Covers: No

:oops:

_________________
прокъметол - это музыко, от которово есть прок (ы)


Top
 Profile  
 
 
PostPosted: 26 Feb 2010 
труъ антисионист
User avatar
Joined: 01 Aug 2007
Posts: 4541
Lоcаtion: Откуда и большинство из нас
Age: 37
Name: Дядя Вова
блин, надо сиправить ))

_________________
Image
Image


Top
 Profile  
 
 
PostPosted: 27 Feb 2010 
Хиппей (support team)
User avatar
Joined: 30 Jul 2007
Posts: 108205
Lоcаtion: Киев (Kyiv, UA)
Age: 45
Name: Andrey
Сиправь, сиправь :crazy:

_________________


Top
 Profile E-mail  
 
Display posts from previous:  Sort by  
Post new topic Reply to topic  [ 5 posts ] 

All times are UTC + 3 hours


Who is online

Users browsing this forum: No registered users and 1 guest


You cannot post new topics in this forum
You cannot reply to topics in this forum
You cannot edit your posts in this forum
You cannot delete your posts in this forum
You cannot post attachments in this forum

Search for:
Яндекс.Метрика
Powered by phpBB © 2000, 2002, 2005, 2007 phpBB Group