\m/ 80's metal \m/

Информационно-аналитический форум "80 см пыли" (In Search We Trust) "У нас никто никуда не спешит"
Железнодорожная биржа - RailAgent
It is currently 23 Jul 2018

All times are UTC + 3 hours

Spoiler
Chat - temporary registration for foreign users (please leave your application here)







Post new topic Reply to topic  [ 7 posts ] 
Author Message
 
PostPosted: 25 Feb 2010 
Old Time Rock`n`Roll
User avatar
Joined: 23 Jun 2008
Posts: 3342
Lоcаtion: г.Ульяновск
Age: 39
Name: Константин
Starz – Violation (1977)

Image

Year: 1977
Style: Hard Rock, Hair Metal of 70`s
Country: USA
Format: FLAC (tracks) + log + cue + scans & mp3-320
Size: 320 Mb + 106 Mb

Tracklist
01. Cherry Baby
02. Rock Six Times
03. Sing It, Shout It
04. Violation
05. Subway Terror
06. All Night Long
07. Cool One
08. S.T.E.A.D.Y.
09. Is That A Street Light Or The Moon?
10. Do It WIth The Lights On [Demo-2005 Bonus Track]
11. Cool One [Demo-2005 Bonus Track]
12. Rock This Town [Demo-2005 Bonus Track]

TPT – 46:22

Line-Up
Brenden Harkin - Guitars
Joe Dube - Drums
Michael Lee Smith - Lead Vocals
Peter Sweval - Bass
Richie Ranno – Guitars

Album Credits:
Produced: Jack Douglas
Engineered: Jay Messina

Additional Credits :
Design: Dennis Woloch
Cover Painting: Alex Siburney

Chart Position:
USA # 89

Charting Singles:
Sing It, Shout It - USA # 66
Cherry Baby - USA # 33

Log
xact Audio Copy V0.99 prebeta 4 from 23. January 2008

EAC extraction logfile from 6. November 2009, 22:25

Starz / Violation

Used drive : SONY CD-RW CRX320EE Adapter: 0 ID: 0

Read mode : Secure
Utilize accurate stream : Yes
Defeat audio cache : Yes
Make use of C2 pointers : No

Read offset correction : 6
Overread into Lead-In and Lead-Out : No
Fill up missing offset samples with silence : Yes
Delete leading and trailing silent blocks : No
Null samples used in CRC calculations : Yes
Used interface : Native Win32 interface for Win NT & 2000
Gap handling : Appended to previous track

Used output format : Internal WAV Routines
Sample format : 44.100 Hz; 16 Bit; Stereo


TOC of the extracted CD

Track | Start | Length | Start sector | End sector
---------------------------------------------------------
1 | 0:00.00 | 3:47.49 | 0 | 17073
2 | 3:47.49 | 3:13.72 | 17074 | 31620
3 | 7:01.46 | 5:13.38 | 31621 | 55133
4 | 12:15.09 | 4:28.29 | 55134 | 75262
5 | 16:43.38 | 3:43.34 | 75263 | 92021
6 | 20:26.72 | 3:29.05 | 92022 | 107701
7 | 23:56.02 | 3:41.18 | 107702 | 124294
8 | 27:37.20 | 5:40.69 | 124295 | 149863
9 | 33:18.14 | 3:18.50 | 149864 | 164763
10 | 36:36.64 | 3:34.73 | 164764 | 180886
11 | 40:11.62 | 3:22.08 | 180887 | 196044
12 | 43:33.70 | 2:47.24 | 196045 | 208593


Track 1

Filename C:\Documents and Settings\user1\My Documents\My Music\Starz - 01 - Cherry Baby.wav

Pre-gap length 0:00:02.00

Peak level 99.7 %
Track quality 100.0 %
Test CRC F02AA374
Copy CRC F02AA374
Track not present in AccurateRip database
Copy OK

Track 2

Filename C:\Documents and Settings\user1\My Documents\My Music\Starz - 02 - Rock Six Times.wav

Peak level 99.7 %
Track quality 100.0 %
Test CRC C44A6B42
Copy CRC C44A6B42
Track not present in AccurateRip database
Copy OK

Track 3

Filename C:\Documents and Settings\user1\My Documents\My Music\Starz - 03 - Sing It, Shout It.wav

Peak level 99.7 %
Track quality 100.0 %
Test CRC 03F41D20
Copy CRC 03F41D20
Track not present in AccurateRip database
Copy OK

Track 4

Filename C:\Documents and Settings\user1\My Documents\My Music\Starz - 04 - Violation.wav

Peak level 99.7 %
Track quality 100.0 %
Test CRC C3E925F4
Copy CRC C3E925F4
Track not present in AccurateRip database
Copy OK

Track 5

Filename C:\Documents and Settings\user1\My Documents\My Music\Starz - 05 - Subway Terror.wav

Peak level 99.7 %
Track quality 100.0 %
Test CRC E7C5447E
Copy CRC E7C5447E
Track not present in AccurateRip database
Copy OK

Track 6

Filename C:\Documents and Settings\user1\My Documents\My Music\Starz - 06 - All Night Long.wav

Peak level 99.7 %
Track quality 100.0 %
Test CRC 1DE9D255
Copy CRC 1DE9D255
Track not present in AccurateRip database
Copy OK

Track 7

Filename C:\Documents and Settings\user1\My Documents\My Music\Starz - 07 - Cool One.wav

Peak level 99.7 %
Track quality 100.0 %
Test CRC 9FF493B1
Copy CRC 9FF493B1
Track not present in AccurateRip database
Copy OK

Track 8

Filename C:\Documents and Settings\user1\My Documents\My Music\Starz - 08 - S.T.E.A.D.Y..wav

Peak level 99.7 %
Track quality 100.0 %
Test CRC 586C36B3
Copy CRC 586C36B3
Track not present in AccurateRip database
Copy OK

Track 9

Filename C:\Documents and Settings\user1\My Documents\My Music\Starz - 09 - Is That A Street Light Or The Moon .wav

Peak level 99.7 %
Track quality 100.0 %
Test CRC 36CF9774
Copy CRC 36CF9774
Track not present in AccurateRip database
Copy OK

Track 10

Filename C:\Documents and Settings\user1\My Documents\My Music\Starz - 10 - Do It With The Lights On (Demo).wav

Peak level 99.7 %
Track quality 100.0 %
Test CRC CBD357B4
Copy CRC CBD357B4
Track not present in AccurateRip database
Copy OK

Track 11

Filename C:\Documents and Settings\user1\My Documents\My Music\Starz - 11 - Cool One (Demo).wav

Peak level 99.7 %
Track quality 100.0 %
Test CRC 89C45949
Copy CRC 89C45949
Track not present in AccurateRip database
Copy OK

Track 12

Filename C:\Documents and Settings\user1\My Documents\My Music\Starz - 12 - Rock This Town (Demo).wav

Peak level 99.7 %
Track quality 100.0 %
Test CRC 270088F5
Copy CRC 270088F5
Track not present in AccurateRip database
Copy OK


None of the tracks are present in the AccurateRip database

No errors occurred

End of status report


Cue
REM GENRE Rock
REM DATE 1977
REM DISCID 8F0ADD0C
REM COMMENT "ExactAudioCopy v0.99pb4"
PERFORMER "Starz"
TITLE "Violation"
FILE "Starz - 01 - Cherry Baby.wav" WAVE
TRACK 01 AUDIO
TITLE "Cherry Baby"
PERFORMER "Starz"
INDEX 01 00:00:00
FILE "Starz - 02 - Rock Six Times.wav" WAVE
TRACK 02 AUDIO
TITLE "Rock Six Times"
PERFORMER "Starz"
INDEX 01 00:00:00
FILE "Starz - 03 - Sing It, Shout It.wav" WAVE
TRACK 03 AUDIO
TITLE "Sing It, Shout It"
PERFORMER "Starz"
INDEX 01 00:00:00
FILE "Starz - 04 - Violation.wav" WAVE
TRACK 04 AUDIO
TITLE "Violation"
PERFORMER "Starz"
INDEX 01 00:00:00
FILE "Starz - 05 - Subway Terror.wav" WAVE
TRACK 05 AUDIO
TITLE "Subway Terror"
PERFORMER "Starz"
INDEX 01 00:00:00
FILE "Starz - 06 - All Night Long.wav" WAVE
TRACK 06 AUDIO
TITLE "All Night Long"
PERFORMER "Starz"
INDEX 01 00:00:00
FILE "Starz - 07 - Cool One.wav" WAVE
TRACK 07 AUDIO
TITLE "Cool One"
PERFORMER "Starz"
INDEX 01 00:00:00
FILE "Starz - 08 - S.T.E.A.D.Y..wav" WAVE
TRACK 08 AUDIO
TITLE "S.T.E.A.D.Y."
PERFORMER "Starz"
INDEX 01 00:00:00
FILE "Starz - 09 - Is That A Street Light Or The Moon .wav" WAVE
TRACK 09 AUDIO
TITLE "Is That A Street Light Or The Moon?"
PERFORMER "Starz"
INDEX 01 00:00:00
FILE "Starz - 10 - Do It With The Lights On (Demo).wav" WAVE
TRACK 10 AUDIO
TITLE "Do It With The Lights On (Demo)"
PERFORMER "Starz"
INDEX 01 00:00:00
FILE "Starz - 11 - Cool One (Demo).wav" WAVE
TRACK 11 AUDIO
TITLE "Cool One (Demo)"
PERFORMER "Starz"
INDEX 01 00:00:00
FILE "Starz - 12 - Rock This Town (Demo).wav" WAVE
TRACK 12 AUDIO
TITLE "Rock This Town (Demo)"
PERFORMER "Starz"
INDEX 01 00:00:00


FLAC
megaupload-FLAC


mp3-320
narod-320

За рип спасибо пользователю grayhost.
Альбом представляет собой утяжеленный вариант мелодик-харда 70-х, некоторые называют его даже хэви-металом, вообщем это то, что спустя 10 лет в конце 80-х благодаря Bon Jovi Whitesnake и т.д. будет называться хэйр-металлом. Сильный диск, лучший в дискографии коллектива, чьим менеджером был Билл Окойн, в то время бывший также и менеджером Кисс. Спродюссировал альбом Джек Дуглас (Aerosmith, Cheap Trick, Alice Cooper, Zebra, Montrose, Harlequin)

Image


Last edited by oldrocker on 25 Feb 2010, edited 1 time in total.

Top
 Profile  
 
 
PostPosted: 25 Feb 2010 
хард н хэвщик (support team)
User avatar
Joined: 02 Jun 2008
Posts: 16880
Lоcаtion: Н.Новгород
Age: 31
Name: Артем
Кость, я подзабыл, здесь по-моему это уже обсуждалось., но для чего в потрековом рипе нужен cue ?


Top
 Profile  
 
 
PostPosted: 25 Feb 2010 
Old Time Rock`n`Roll
User avatar
Joined: 23 Jun 2008
Posts: 3342
Lоcаtion: г.Ульяновск
Age: 39
Name: Константин
Без понятия, но можно при его помощи записать альбом в EAC используя опцию "открыть индексную карту"


Top
 Profile  
 
 
PostPosted: 25 Feb 2010 
хард н хэвщик (support team)
User avatar
Joined: 02 Jun 2008
Posts: 16880
Lоcаtion: Н.Новгород
Age: 31
Name: Артем
ах, да, точно. это ж в нерке можно писать без индексной карте, а в ЕАС не получится. ты прав


Top
 Profile  
 
 
PostPosted: 26 Feb 2010 
Old Time Rock`n`Roll
User avatar
Joined: 23 Jun 2008
Posts: 3342
Lоcаtion: г.Ульяновск
Age: 39
Name: Константин
И в ЕАК можно через писать без карты используя функцию "добавить файлы как новые треки", возможо через куй запись более правильная с точки зрения оффсетов/коррекций или как оно там правильно.


Top
 Profile  
 
 
PostPosted: 26 Feb 2010 
Хиппей (support team)
User avatar
Joined: 30 Jul 2007
Posts: 105221
Lоcаtion: Киев (Kyiv, UA)
Age: 45
Name: Andrey
Спасибо за Звезды :thanx:

_________________


Top
 Profile E-mail  
 
 
PostPosted: 26 Feb 2010 
Почётный металлург
User avatar
Joined: 15 Sep 2007
Posts: 4357
Lоcаtion: Хабаровск
Age: 58
Name: чуть выше
Отлично! Спасибо, Костя! :true:

_________________
Коль будешь людей ты ослами честить,
тебе человеком меж них не прослыть!
(Саади, персидский поэт, 13в.)


Top
 Profile  
 
Display posts from previous:  Sort by  
Post new topic Reply to topic  [ 7 posts ] 

All times are UTC + 3 hours


Who is online

Users browsing this forum: No registered users and 2 guests


You cannot post new topics in this forum
You cannot reply to topics in this forum
You cannot edit your posts in this forum
You cannot delete your posts in this forum
You cannot post attachments in this forum

Search for:
Яндекс.Метрика
Powered by phpBB © 2000, 2002, 2005, 2007 phpBB Group