\m/ 80's metal \m/

Информационно-аналитический форум "80 см пыли" (In Search We Trust) "У нас никто никуда не спешит"
Железнодорожная биржа - RailAgent
It is currently 21 Jul 2018

All times are UTC + 3 hours

Spoiler
Chat - temporary registration for foreign users (please leave your application here)







Post new topic Reply to topic  [ 9 posts ] 
Author Message
 
PostPosted: 16 Feb 2010 
Генеральный thrasher
User avatar
Joined: 03 Oct 2008
Posts: 3408
Lоcаtion: Ханты-Мансийский АО
Age: 43
Name: Сергей
Image

Year: 2007
Style: Thrash Metal
Country: U.S.A.
Audio: flac+cue+log
Size: 321Mb+365Mb
Label:Metal Blade


Ignorance:
1. Death Squad 04:25
2. Victim of Demise 03:35
3. Layed to Rest 02:17
4. Ignorance 04:08
5. No Believers 03:23
6. Violent Solutions 04:16
7. Rest in Peace 03:46
8. Sacred Reich 03:17
9. Administrative Decisions 03:26
10. Rapid Fire (Judas Priest cover with Rob Halford) 03:42
11. The Big Picture (MDC cover) 01:34
12. Sweet Leaf (Black Sabbath cover) 05:05



Surf Nicaragua:
1. Surf Nicaragua 04:40
2. One Nation 03:23
3. War Pigs (Black Sabbath cover) 06:05
4. Draining You of Life 03:18
5. Ignorance (live) 04:03
6. Death Squad (live) 04:31
7. Draining You of Life (demo) 03:42
8. Ignorance (Metal Massacre VIII version) 03:52
9. No Believers (demo) 03:39
10. R.I.P. (demo) 04:05
11. Sacred Reich (demo) 03:27
12. Sacred Reich (Metal Massacre sessions) 03:14


Line-up:
Phil Rind – Vocals/Bass
Wiley Arnett – Guitar
Jason Rainey – Guitar
Greg Hall – Drums

Log 1
Exact Audio Copy V0.99 prebeta 4 from 23. January 2008

Отчёт EAC об извлечении, выполненном 16. февраля 2010, 12:01

Sacred Reich / Ignorance (3 disc special edition)

Дисковод: ATAPI DVD A DH20A4P Adapter: 0 ID: 1

Режим чтения : Достоверность
Использование точного потока : Да
Отключение кэша аудио : Да
Использование указателей C2 : Нет

Коррекция смещения при чтении : 6
Способность читать области Lead-in и Lead-out : Нет
Заполнение пропущенных сэмплов тишиной : Да
Удаление блоков с тишиной в начале и конце : Нет
При вычислениях CRC использовались нулевые сэмплы : Нет
Интерфейс : Установленный внешний ASPI-интерфейс

Выходной формат : Пользовательский кодировщик
Выбранный битрейт : 768 kBit/s
Качество : Высокий
Добавление ID3-тэга : Нет
Утилита сжатия : C:\Program Files\Exact Audio Copy\FLAC\FLAC.EXE
Дополнительные параметры : -6 -V -T "ARTIST=%a" -T "TITLE=%t" -T "ALBUM=%g" -T "DATE=%y" -T "TRACKNUMBER=%n" -T "GENRE=%m" -T "COMMENT=%e" %s -o %d


TOC извлечённого CD

Трек | Старт | Длительность | Начальный сектор | Конечный сектор
---------------------------------------------------------------------
1 | 0:00.00 | 4:24.38 | 0 | 19837
2 | 4:24.38 | 3:35.35 | 19838 | 35997
3 | 7:59.73 | 2:17.24 | 35998 | 46296
4 | 10:17.22 | 4:08.01 | 46297 | 64897
5 | 14:25.23 | 3:22.38 | 64898 | 80085
6 | 17:47.61 | 4:15.56 | 80086 | 99266
7 | 22:03.42 | 3:45.55 | 99267 | 116196
8 | 25:49.22 | 3:16.57 | 116197 | 130953
9 | 29:06.04 | 3:26.09 | 130954 | 146412
10 | 32:32.13 | 3:41.42 | 146413 | 163029
11 | 36:13.55 | 1:33.47 | 163030 | 170051
12 | 37:47.27 | 5:04.56 | 170052 | 192907


Характеристики диапазона извлечения и сообщения об ошибках

Выбранный диапазон

Имя файла F:\Лоси\Sacred Reich - Ignorance (3 disc special edition).wav

Пиковый уровень 98.9 %
Качество диапазона 100.0 %
CRC копии 8DAF200E
Копирование... OK

Ошибок не произошло


AccurateRip: сводка

Трек 1 точное извлечение (доверие 9) [0AD98553]
Трек 2 точное извлечение (доверие 9) [3970A7FD]
Трек 3 точное извлечение (доверие 9) [2EB0D08F]
Трек 4 точное извлечение (доверие 9) [3F09CAFF]
Трек 5 точное извлечение (доверие 9) [0FA98346]
Трек 6 точное извлечение (доверие 9) [0D969A1D]
Трек 7 точное извлечение (доверие 9) [34A81FA5]
Трек 8 точное извлечение (доверие 9) [5870EAA8]
Трек 9 точное извлечение (доверие 9) [85D94AD7]
Трек 10 точное извлечение (доверие 9) [76FB2FFA]
Трек 11 точное извлечение (доверие 9) [F968331B]
Трек 12 точное извлечение (доверие 9) [48B7038E]

Все треки извлечены точно

Конец отчёта



Log 2
Sacred Reich / Surf Nicaragua EP (3 disc special edition)

Дисковод: ATAPI DVD A DH20A4P Adapter: 0 ID: 1

Режим чтения : Достоверность
Использование точного потока : Да
Отключение кэша аудио : Да
Использование указателей C2 : Нет

Коррекция смещения при чтении : 6
Способность читать области Lead-in и Lead-out : Нет
Заполнение пропущенных сэмплов тишиной : Да
Удаление блоков с тишиной в начале и конце : Нет
При вычислениях CRC использовались нулевые сэмплы : Нет
Интерфейс : Установленный внешний ASPI-интерфейс

Выходной формат : Пользовательский кодировщик
Выбранный битрейт : 768 kBit/s
Качество : Высокий
Добавление ID3-тэга : Нет
Утилита сжатия : C:\Program Files\Exact Audio Copy\FLAC\FLAC.EXE
Дополнительные параметры : -6 -V -T "ARTIST=%a" -T "TITLE=%t" -T "ALBUM=%g" -T "DATE=%y" -T "TRACKNUMBER=%n" -T "GENRE=%m" -T "COMMENT=%e" %s -o %d


TOC извлечённого CD

Трек | Старт | Длительность | Начальный сектор | Конечный сектор
---------------------------------------------------------------------
1 | 0:00.00 | 4:40.30 | 0 | 21029
2 | 4:40.30 | 3:23.17 | 21030 | 36271
3 | 8:03.47 | 6:05.06 | 36272 | 63652
4 | 14:08.53 | 3:17.65 | 63653 | 78492
5 | 17:26.43 | 4:03.35 | 78493 | 96752
6 | 21:30.03 | 4:31.07 | 96753 | 117084
7 | 26:01.10 | 3:42.15 | 117085 | 133749
8 | 29:43.25 | 3:52.22 | 133750 | 151171
9 | 33:35.47 | 3:38.52 | 151172 | 167573
10 | 37:14.24 | 4:05.35 | 167574 | 185983
11 | 41:19.59 | 3:27.08 | 185984 | 201516
12 | 44:46.67 | 3:14.70 | 201517 | 216136


Характеристики диапазона извлечения и сообщения об ошибках

Выбранный диапазон

Имя файла F:\Лоси\Sacred Reich - Surf Nicaragua EP (3 disc special edition).wav

Пиковый уровень 98.9 %
Качество диапазона 100.0 %
CRC копии 1555C38C
Копирование... OK

Ошибок не произошло


AccurateRip: сводка

Трек 1 точное извлечение (доверие 8) [07A4FA05]
Трек 2 точное извлечение (доверие 8) [20E5069A]
Трек 3 точное извлечение (доверие 8) [DD7783DD]
Трек 4 точное извлечение (доверие 8) [EDFE5EB3]
Трек 5 точное извлечение (доверие 8) [4E6C3262]
Трек 6 точное извлечение (доверие 8) [3D23F0F7]
Трек 7 точное извлечение (доверие 8) [B8234213]
Трек 8 точное извлечение (доверие 8) [C03AEAF3]
Трек 9 точное извлечение (доверие 8) [5431EB6C]
Трек 10 точное извлечение (доверие 8) [E5B76F31]
Трек 11 точное извлечение (доверие 8) [473A2665]
Трек 12 точное извлечение (доверие 8) [3A4C9A27]

Все треки извлечены точно

Конец отчёта


Ignorance
Surf Nivaragua
Scans


Top
 Profile  
 
 
PostPosted: 16 Feb 2010 
дядя Миша
User avatar
Joined: 17 Oct 2008
Posts: 3035
Lоcаtion: USSR
Age: 55
Name: Khy
куплю ка я, этот дисочек.


Top
 Profile  
 
 
PostPosted: 16 Feb 2010 
Прокъмитолист
User avatar
Joined: 12 Aug 2007
Posts: 6420
Lоcаtion: Санктъ-Петербуркъ
Age: 50
Name: Олекъ
видел, блин, такой бокс (с двд вроде еще) осенью в Барселоне... да что-то жаба задушила купить - ММТ-шный релиз уже есть. купил вместо этого бокс Hallows Eve :umnik:

_________________
прокъметол - это музыко, от которово есть прок (ы)


Top
 Profile  
 
 
PostPosted: 17 Feb 2010 
Генеральный thrasher
User avatar
Joined: 03 Oct 2008
Posts: 3408
Lоcаtion: Ханты-Мансийский АО
Age: 43
Name: Сергей
spiralarch wrote:
такой бокс (с двд вроде еще)


Да бокс с DVD.Взял в Екатеринбурге в одном магазине в отделе second hand за штуку....Отличное издание.


Top
 Profile  
 
 
PostPosted: 17 Feb 2010 
А может смените мне статус?..
User avatar
Joined: 17 Jan 2008
Posts: 844
Lоcаtion: Пенза
Age: 40
Name: Денис
а DVD с этого издания можно залить?


Top
 Profile  
 
 
PostPosted: 25 Aug 2010 
Персональный статус
Joined: 21 Aug 2009
Posts: 238
Name: alex
спасибо автору. отличные альбомы.может найдется Sacred Reich - 1990 The American Way в лосслессе :true:


Top
 Profile E-mail  
 
 
PostPosted: 25 Aug 2010 
Хиппей (support team)
User avatar
Joined: 30 Jul 2007
Posts: 105183
Lоcаtion: Киев (Kyiv, UA)
Age: 45
Name: Andrey
alexandrsev wrote:
может найдется Sacred Reich - 1990 The American Way в лосслессе

Дык, запрос в Гугель. Там он много где должен быть :pardon:

_________________


Top
 Profile E-mail  
 
 
PostPosted: 25 Aug 2010 
Motörheadache
User avatar
Joined: 04 Feb 2010
Posts: 1294
Lоcаtion: Впереди- горы,позади-степи
Age: 45
Name: Александр
Scatterbrain wrote:
Дык, запрос в Гугель. Там он много где должен быть

на рутрэкере есть...тянул оттудова.... :oops: :oops:

_________________
Eine Nation, Ein Land, Eine Schnaps!

Наш священный долг:защищать Родину,и соблюдать правила личной гигиены....!


Top
 Profile E-mail  
 
 
PostPosted: 25 Aug 2010 
Генеральный thrasher
User avatar
Joined: 03 Oct 2008
Posts: 3408
Lоcаtion: Ханты-Мансийский АО
Age: 43
Name: Сергей
alexx1973 wrote:
Scatterbrain wrote:
Дык, запрос в Гугель. Там он много где должен быть

на рутрэкере есть...тянул оттудова.... :oops: :oops:


Если ремастированный тянул,то это моя раздача...


Top
 Profile  
 
Display posts from previous:  Sort by  
Post new topic Reply to topic  [ 9 posts ] 

All times are UTC + 3 hours


Who is online

Users browsing this forum: No registered users and 1 guest


You cannot post new topics in this forum
You cannot reply to topics in this forum
You cannot edit your posts in this forum
You cannot delete your posts in this forum
You cannot post attachments in this forum

Search for:
Яндекс.Метрика
Powered by phpBB © 2000, 2002, 2005, 2007 phpBB Group