\m/ 80's metal \m/

Информационно-аналитический форум "80 см пыли" (In Search We Trust) "У нас никто никуда не спешит"
Железнодорожная биржа - RailAgent
It is currently 23 Jul 2018

All times are UTC + 3 hours

Spoiler
Chat - temporary registration for foreign users (please leave your application here)







Post new topic Reply to topic  [ 11 posts ] 
Author Message
 
PostPosted: 10 Feb 2010 
хард н хэвщик (support team)
User avatar
Joined: 02 Jun 2008
Posts: 16880
Lоcаtion: Н.Новгород
Age: 31
Name: Артем
Image

Slik Toxik - 1992 - Doin' The Nasty [APE]

1. Big Fuckin' Deal
2. Helluvatime
3. Sweet Asylum
4. White Lies--Black Truth
5. Cherry Bomb
6. Marionette
7. It's Not Eazy
8. Crashed
9. By the Fireside
10. Blood Money
11. Cheap Nicotine
12. Midnight Grind
13. Rachel's Dead

phpBB [youtube]


Рип моего товарища. В архиве - ape+log+log+covers

http://ifolder.ru/16348082
http://ifolder.ru/16348083
http://ifolder.ru/16348076
http://ifolder.ru/16348077


Top
 Profile  
 
 
PostPosted: 10 Feb 2010 
Old Time Rock`n`Roll
User avatar
Joined: 23 Jun 2008
Posts: 3342
Lоcаtion: г.Ульяновск
Age: 39
Name: Константин
Спасибо, будем втыкать! :true:


Top
 Profile  
 
 
PostPosted: 15 Feb 2010 
Прокъмитолист
User avatar
Joined: 12 Aug 2007
Posts: 6423
Lоcаtion: Санктъ-Петербуркъ
Age: 50
Name: Олекъ
и я забрал... зачем-то... спасибо :thanx:

_________________
прокъметол - это музыко, от которово есть прок (ы)


Top
 Profile  
 
 
PostPosted: 22 Feb 2010 
хард н хэвщик (support team)
User avatar
Joined: 02 Jun 2008
Posts: 16880
Lоcаtion: Н.Новгород
Age: 31
Name: Артем
один из скачавших с другого форума сказал, что в архиве нет куя. Из здешних скачавших подтвердите инфу. :oops:


Top
 Profile  
 
 
PostPosted: 22 Feb 2010 
Хиппей (support team)
User avatar
Joined: 30 Jul 2007
Posts: 105233
Lоcаtion: Киев (Kyiv, UA)
Age: 45
Name: Andrey
McKagan wrote:
В архиве - ape+log+log+covers

Не качал еще... Но инфа явно верная :crazy:

_________________


Top
 Profile E-mail  
 
 
PostPosted: 22 Feb 2010 
Old Time Rock`n`Roll
User avatar
Joined: 23 Jun 2008
Posts: 3342
Lоcаtion: г.Ульяновск
Age: 39
Name: Константин
Ну что за бестактность - наши куи обсуждают на других форумах))
Нет, нас по-другому воспитывали))
Есть и лог и куй, в логе нулевая коррекция смещения, ну и хрен с ней.


Top
 Profile  
 
 
PostPosted: 22 Feb 2010 
хард н хэвщик (support team)
User avatar
Joined: 02 Jun 2008
Posts: 16880
Lоcаtion: Н.Новгород
Age: 31
Name: Артем
ок, спасибо Кость.


Top
 Profile  
 
 
PostPosted: 24 Feb 2010 
хард н хэвщик (support team)
User avatar
Joined: 02 Jun 2008
Posts: 16880
Lоcаtion: Н.Новгород
Age: 31
Name: Артем
Кость , извини. но ты можешь кинуть куе-файл сюда ?
я альбом закатал на болванку и уже удалил с винта, а диски на другой квартире


Top
 Profile  
 
 
PostPosted: 25 Feb 2010 
Old Time Rock`n`Roll
User avatar
Joined: 23 Jun 2008
Posts: 3342
Lоcаtion: г.Ульяновск
Age: 39
Name: Константин
Cue
REM GENRE "Hard Rock"
REM DATE 1992
REM DISCID CD0C850D
REM COMMENT "ExactAudioCopy v0.95b4"
PERFORMER "Slik Toxic"
TITLE "Doin' The Nasty"
FILE "Slik Toxic - 1992 - Doin' The Nasty.wav" WAVE
TRACK 01 AUDIO
TITLE "Big Fuckin' Deal"
PERFORMER "Slik Toxic"
INDEX 01 00:00:00
TRACK 02 AUDIO
TITLE "Helluvatime"
PERFORMER "Slik Toxic"
INDEX 00 02:50:55
INDEX 01 02:52:55
TRACK 03 AUDIO
TITLE "Sweet Asylum"
PERFORMER "Slik Toxic"
INDEX 00 06:48:42
INDEX 01 06:50:42
TRACK 04 AUDIO
TITLE "White Lies, Black Truth"
PERFORMER "Slik Toxic"
INDEX 00 11:13:59
INDEX 01 11:15:59
TRACK 05 AUDIO
TITLE "Cherry Bomb"
PERFORMER "Slik Toxic"
INDEX 00 16:11:12
INDEX 01 16:13:12
TRACK 06 AUDIO
TITLE "Marionette"
PERFORMER "Slik Toxic"
INDEX 00 21:12:16
INDEX 01 21:14:16
TRACK 07 AUDIO
TITLE "It's Not Eazy"
PERFORMER "Slik Toxic"
INDEX 00 24:52:27
INDEX 01 24:54:27
TRACK 08 AUDIO
TITLE "Crashed"
PERFORMER "Slik Toxic"
INDEX 00 28:09:44
INDEX 01 28:11:44
TRACK 09 AUDIO
TITLE "By The Fireside"
PERFORMER "Slik Toxic"
INDEX 00 32:15:29
INDEX 01 32:17:29
TRACK 10 AUDIO
TITLE "Blood Money"
PERFORMER "Slik Toxic"
INDEX 00 36:25:24
INDEX 01 36:27:24
TRACK 11 AUDIO
TITLE "Cheap Nicotine"
PERFORMER "Slik Toxic"
INDEX 00 41:05:34
INDEX 01 41:07:34
TRACK 12 AUDIO
TITLE "Midnight Grind"
PERFORMER "Slik Toxic"
INDEX 00 45:19:11
INDEX 01 45:21:11
TRACK 13 AUDIO
TITLE "Rachel's Dead"
PERFORMER "Slik Toxic"
INDEX 00 50:58:11
INDEX 01 51:00:11


Top
 Profile  
 
 
PostPosted: 25 Feb 2010 
хард н хэвщик (support team)
User avatar
Joined: 02 Jun 2008
Posts: 16880
Lоcаtion: Н.Новгород
Age: 31
Name: Артем
:thanx:


Top
 Profile  
 
 
PostPosted: 27 Feb 2010 
Персональный статус
User avatar
Joined: 02 Jul 2009
Posts: 291
Name: Александр
Огромное спасибо . :true: А кстати вы говорили про куй есть он . Артём , всё в порядке . Спасибо !!!


Top
 Profile E-mail  
 
Display posts from previous:  Sort by  
Post new topic Reply to topic  [ 11 posts ] 

All times are UTC + 3 hours


Who is online

Users browsing this forum: thorbeorn and 1 guest


You cannot post new topics in this forum
You cannot reply to topics in this forum
You cannot edit your posts in this forum
You cannot delete your posts in this forum
You cannot post attachments in this forum

Search for:
Яндекс.Метрика
cron
Powered by phpBB © 2000, 2002, 2005, 2007 phpBB Group