\m/ 80's metal \m/

Информационно-аналитический форум "80 см пыли" (In Search We Trust) "У нас никто никуда не спешит"
Железнодорожная биржа - RailAgent
It is currently 17 Jul 2018

All times are UTC + 3 hours

Spoiler
Chat - temporary registration for foreign users (please leave your application here)







Post new topic Reply to topic  [ 94 posts ]  Go to page Previous  1, 2, 3, 4, 5  Next
Author Message
 
PostPosted: 22 Sep 2013 
А может смените мне статус?..
User avatar
Joined: 28 Jul 2008
Posts: 906
Lоcаtion: Украина---Днепропетровск
Age: 44
Name: Александр
Для коллекции пойдет :oops:
А так вообще интересно-вышли 2 альбома в 2011 и 2012-если про 2012 еще что то можно найти в сети то 2011 Atlantída Smíchu-я чегото ничего не нашел :dash:

_________________
Музыка в которой я растворяюсь многих угнетает......


Top
 Profile  
 
 
PostPosted: 22 Sep 2013 
А может смените мне статус?..
User avatar
Joined: 28 Jul 2008
Posts: 906
Lоcаtion: Украина---Днепропетровск
Age: 44
Name: Александр
Syfon-1991-100 hrichu
Размер: 60.34 Мб
http://rusfolder.com/38127494
http://dfiles.ru/files/3a866u0kc
Syfon-1993 - Soudnej Den
Размер: 47.80 Мб
http://rusfolder.com/38127495
http://dfiles.ru/files/2n7zqhshf
Syfon-1996 - Generace
Размер: 104.16 Мб
http://rusfolder.com/38127498
http://dfiles.ru/files/csy376fo3
Syfon-1999-Archivni...nahravky z let 83-88
Размер: 94.26 Мб
http://rusfolder.com/38127501
http://dfiles.ru/files/mqe1xiuhe
Syfon-2002 - Akta X
Размер: 135.57 Мб
http://rusfolder.com/38127504
http://dfiles.ru/files/l64axqzjl
Syfon-2004 - Cas
Размер: 96.29 Мб
http://rusfolder.com/3812750
http://dfiles.ru/files/67y48ggla
yfon-2007 - 2007
Размер: 66.86 Мб
http://rusfolder.com/38127508
http://dfiles.ru/files/v3bda6yq5
Syfon-2011 Atlantida Smechu
Размер: 76.65 Мб
http://rusfolder.com/38127509
http://dfiles.ru/files/gjgrbooye
Syfon-2012-Srdce v okovech
Размер: 158.26 Мб
http://rusfolder.com/38127511
http://dfiles.ru/files/db05ix2wp

_________________
Музыка в которой я растворяюсь многих угнетает......


Top
 Profile  
 
 
PostPosted: 22 Sep 2013 
Работнечег
User avatar
Joined: 28 Aug 2007
Posts: 5379
Lоcаtion: г. Москва
Age: 29
Name: Дима
Вовремя вы темку оживили, я как раз рипнул альбомчик 2007 года) Серегины рипы не качал, так как Akta X есть диск, а Cas мне честно мало довольно интересен.. Спасибо за 2011, 2012 годы, вообще не знал про них ничего)


Top
 Profile E-mail  
 
 
PostPosted: 22 Sep 2013 
Работнечег
User avatar
Joined: 28 Aug 2007
Posts: 5379
Lоcаtion: г. Москва
Age: 29
Name: Дима
Image

Year: 2007
Label: Avik
Format: Flac+Cue+Log+Covers/Mp3@320 + Covers
Size: 365 Mb + 115 Mb

Line-Up:
Roman "Gej" Heiný - Bass
Jirí Vébr - Drums
Václav Šelmát - Guitars, Vocals
Tomáš Navrátil - Guitars, Vocals


Tracklist:
1. Andìlská 03:45
2. Hotel na rozcestí 04:10
3. City na prodej 04:59
4. Fajnovej 04:31
5. Noc bláznů 03:33
6. Lásko měj se fajn 04:58
7. Las Vegas 03:42
8. Lásky stárnou 03:01
9. Sem do tebe blázen 03:17
10. Žárlím 04:05
11. Pátrám 02:33
12. Žít jako král 03:20
13. Jdeme na pivo 02:29

LOG
Exact Audio Copy V0.99 prebeta 5 from 4. May 2009

EAC extraction logfile from 19. September 2013, 16:00

Sifon / Sifon 2007

Used drive : PIONEER DVD-RW DVR-116D Adapter: 0 ID: 0

Read mode : Secure
Utilize accurate stream : Yes
Defeat audio cache : Yes
Make use of C2 pointers : No

Read offset correction : 96
Overread into Lead-In and Lead-Out : No
Fill up missing offset samples with silence : Yes
Delete leading and trailing silent blocks : No
Null samples used in CRC calculations : Yes
Used interface : Native Win32 interface for Win NT & 2000

Used output format : User Defined Encoder
Selected bitrate : 32 kBit/s
Quality : High
Add ID3 tag : No
Command line compressor : C:\Program Files\Exact Audio Copy\Flac\flac.exe
Additional command line options : -6 -V %s


TOC of the extracted CD

Track | Start | Length | Start sector | End sector
---------------------------------------------------------
1 | 0:00.00 | 3:47.19 | 0 | 17043
2 | 3:47.19 | 4:12.18 | 17044 | 35961
3 | 7:59.37 | 5:01.29 | 35962 | 58565
4 | 13:00.66 | 4:33.58 | 58566 | 79098
5 | 17:34.49 | 3:36.08 | 79099 | 95306
6 | 21:10.57 | 5:00.52 | 95307 | 117858
7 | 26:11.34 | 3:43.62 | 117859 | 134645
8 | 29:55.21 | 3:04.01 | 134646 | 148446
9 | 32:59.22 | 3:20.24 | 148447 | 163470
10 | 36:19.46 | 4:07.03 | 163471 | 181998
11 | 40:26.49 | 2:35.33 | 181999 | 193656
12 | 43:02.07 | 3:24.33 | 193657 | 208989
13 | 46:26.40 | 2:29.24 | 208990 | 220188


Range status and errors

Selected range

Filename D:\Музыка\Lossless\Sifon - 2007 (2007) FLAC\Sifon - Sifon 2007.wav

Peak level 98.8 %
Range quality 98.3 %
Copy CRC 016D2699
Copy OK

No errors occurred


AccurateRip summary

Track 1 not present in database
Track 2 not present in database
Track 3 not present in database
Track 4 not present in database
Track 5 not present in database
Track 6 not present in database
Track 7 not present in database
Track 8 not present in database
Track 9 not present in database
Track 10 not present in database
Track 11 not present in database
Track 12 not present in database
Track 13 not present in database

None of the tracks are present in the AccurateRip database

End of status report

CUE
REM GENRE "Rock, Metal"
REM DATE 2007
REM DISCID C80B770D
REM COMMENT "ExactAudioCopy v0.99pb5"
PERFORMER "Sifon"
TITLE "Sifon 2007"
FILE "Sifon - Sifon 2007.flac" WAVE
TRACK 01 AUDIO
TITLE "Andelska"
PERFORMER "Sifon"
INDEX 01 00:00:00
TRACK 02 AUDIO
TITLE "Hotel Na Rozcesti"
PERFORMER "Sifon"
INDEX 01 03:47:19
TRACK 03 AUDIO
TITLE "City Na Prodej"
PERFORMER "Sifon"
INDEX 01 07:59:37
TRACK 04 AUDIO
TITLE "Fajnovej"
PERFORMER "Sifon"
INDEX 01 13:00:66
TRACK 05 AUDIO
TITLE "Noc Blaznu"
PERFORMER "Sifon"
INDEX 01 17:34:49
TRACK 06 AUDIO
TITLE "Lasko, Mej Se Fajn"
PERFORMER "Sifon"
INDEX 01 21:10:57
TRACK 07 AUDIO
TITLE "Las Vegas"
PERFORMER "Sifon"
INDEX 01 26:11:34
TRACK 08 AUDIO
TITLE "Lasky Starnou"
PERFORMER "Sifon"
INDEX 01 29:55:21
TRACK 09 AUDIO
TITLE "Jsem Do Tebe Blazen"
PERFORMER "Sifon"
INDEX 01 32:59:22
TRACK 10 AUDIO
TITLE "Zarlim"
PERFORMER "Sifon"
INDEX 01 36:19:46
TRACK 11 AUDIO
TITLE "Patram"
PERFORMER "Sifon"
INDEX 01 40:26:49
TRACK 12 AUDIO
TITLE "Zit Jako Kral"
PERFORMER "Sifon"
INDEX 01 43:02:07
TRACK 13 AUDIO
TITLE "Jdeme Na Pivo"
PERFORMER "Sifon"
INDEX 01 46:26:40


FLAC
MP3@320


Top
 Profile E-mail  
 
 
PostPosted: 23 Sep 2013 
Хиппей (support team)
User avatar
Joined: 30 Jul 2007
Posts: 105036
Lоcаtion: Киев (Kyiv, UA)
Age: 45
Name: Andrey
:thanx:

mirror: Narod

_________________


Top
 Profile E-mail  
 
 
PostPosted: 23 Sep 2013 
Хиппей (support team)
User avatar
Joined: 30 Jul 2007
Posts: 105036
Lоcаtion: Киев (Kyiv, UA)
Age: 45
Name: Andrey
acusser wrote:
Syfon-1991-100 hrichu

:thanx:

Лёш, у тебя в имени группы везде опечаточка =)

_________________


Top
 Profile E-mail  
 
 
PostPosted: 23 Sep 2013 
Хиппей (support team)
User avatar
Joined: 30 Jul 2007
Posts: 105036
Lоcаtion: Киев (Kyiv, UA)
Age: 45
Name: Andrey
acusser wrote:
Syfon-2004 - Cas
Размер: 96.29 Мб
http://rusfolder.com/3812750
http://dfiles.ru/files/67y48ggla

Кхм, а этот файл сам удалился? =)

_________________


Top
 Profile E-mail  
 
 
PostPosted: 23 Sep 2013 
Хиппей (support team)
User avatar
Joined: 30 Jul 2007
Posts: 105036
Lоcаtion: Киев (Kyiv, UA)
Age: 45
Name: Andrey
А, тьху, ты одну цифру не скопировал в ссылке с Фолдыря =))
Блин, как так наплевательски и халатно можно относиться к музыке.
Или ты её собираешь лишь бы была? :cry:

Вопрос такой вот. Ты все свои группы и альбомы хоть успеваешь в какой-то каталог вносить, или качаешь и заливаешь давно на автоматическом пилоте и спрашивать о том, слушаешь ли чего-то из скачанного, смысла нету? =)

_________________


Top
 Profile E-mail  
 
 
PostPosted: 23 Sep 2013 
А может смените мне статус?..
User avatar
Joined: 28 Jul 2008
Posts: 906
Lоcаtion: Украина---Днепропетровск
Age: 44
Name: Александр
Андрей-каталог есть!Я же в чате задавал вопрос кто нить юзает Mylib?Хотел весь каталог оттуда скопировать и перенести в документы.
А так я же слушаю в основном Thrash-Speed-а остальное так прослушиваю трэками!
А что сказал в коллекцию это так-как ты сказал лишь бы была-а вдруг кому то когда то пригодится-но это не относится к таким стилям-хард,аор-блюз-грайнд-блэк-дарк и разной другой галиматьи-это сколько не спрашивай у меня нет и не будет даже просто так(хотя есть и маленькие исключения)
А так хэви-повэр-трэш-спид-добро пожаловать-мне его за плечами не носить-а на полочке-на болванке-не мешает-глядишь и понадобиться!

_________________
Музыка в которой я растворяюсь многих угнетает......


Top
 Profile  
 
 
PostPosted: 23 Sep 2013 
Хиппей (support team)
User avatar
Joined: 30 Jul 2007
Posts: 105036
Lоcаtion: Киев (Kyiv, UA)
Age: 45
Name: Andrey
Лёша, я тебя понял :thanx: :true:


А тем временем я как-то сам того не замечая, гоняю с удовольствием по кругу первый альбом Сифона :dance:
Казалось, бы ничем не приметная группа, исполняющая музыку в рамках таких стилей, как например, Hard Rock/Heavy Metal или же выражаясь более современным языком - Melodic Metal, да еще и на чешском, который для меня более чем понятен и должен ассоциириваться с советскими подобным коллективами по типу Августа, Черного Кофе и прочих местечковых грандов стиля, но... Странное дело, чехи намного круче. Хоть и так же не отличаются собственным стилем и не заморачиваются внесением в это самое направление чего-то своего, исконно славянского, или, например, чисто чешского =)
В общем, первый альбом прошёл "на ура" :true:
Особенно понравилась песня про фрайера :crazy:

6/10

Sifon - 1991 - 100 Hrichu [VBR]

mirror: Narod

_________________


Top
 Profile E-mail  
 
 
PostPosted: 23 Sep 2013 
А может смените мне статус?..
User avatar
Joined: 28 Jul 2008
Posts: 906
Lоcаtion: Украина---Днепропетровск
Age: 44
Name: Александр
Вот видишь Андрей!Положил на полочку-будет лежать!Да и файлы на фолдыре-пока я в силах их продлевать и пока фолдырь жив и ничего не выдумал-будут жить вечно.
И тебе легче-не надо перезаливать если попросят-да и может еще кто заинтересуется :oops:

_________________
Музыка в которой я растворяюсь многих угнетает......


Top
 Profile  
 
 
PostPosted: 23 Sep 2013 
Хиппей (support team)
User avatar
Joined: 30 Jul 2007
Posts: 105036
Lоcаtion: Киев (Kyiv, UA)
Age: 45
Name: Andrey
Ага =) Но я ж всё равно перезалью :pardon:

Итак, как и ожидалось, второй альбом уже не то. Даже почти совсем не то.
Как обычно, группа заматерела, научилась очень хорошо играть (хотя это и смешно звучит, глянул инфу на М-А - коллектив был основан аж в 79-м году), и... понеслись нужные полу-балладные песни с облегчённым саундом. Скорости и драйв остались в прошлом, к сожалению.
И лишь парочка трэков порадовала :pardon:
Две из последних песен на альбоме исполнены в довольно жесткой манере, что "кагбе намекает", что группа вскоре ударится в модняк :fingal:

4/10

Sifon - 1993 - Soudnej Den [vbr]

mirrror: Narod

_________________


Top
 Profile E-mail  
 
 
PostPosted: 23 Sep 2013 
А может смените мне статус?..
User avatar
Joined: 28 Jul 2008
Posts: 906
Lоcаtion: Украина---Днепропетровск
Age: 44
Name: Александр
я насчет перезаливки--на народе они же не вечно хранятся-в будущем иммел ввиду что не надо перезаливать если попросят

_________________
Музыка в которой я растворяюсь многих угнетает......


Top
 Profile  
 
 
PostPosted: 23 Sep 2013 
А может смените мне статус?..
User avatar
Joined: 28 Jul 2008
Posts: 906
Lоcаtion: Украина---Днепропетровск
Age: 44
Name: Александр
надо будет у себя эту темку оформить-пущай висит(жрать же не просит :benya: )

_________________
Музыка в которой я растворяюсь многих угнетает......


Top
 Profile  
 
 
PostPosted: 23 Sep 2013 
Хиппей (support team)
User avatar
Joined: 30 Jul 2007
Posts: 105036
Lоcаtion: Киев (Kyiv, UA)
Age: 45
Name: Andrey
я насчет перезаливки--на народе они же не вечно хранятся-в будущем иммел ввиду что не надо перезаливать если попросят

Пока вечно. Во всяк случае у меня ни одни файл за 4 года не удалился сам по себе :pardon:

_________________


Top
 Profile E-mail  
 
 
PostPosted: 24 Sep 2013 
Хиппей (support team)
User avatar
Joined: 30 Jul 2007
Posts: 105036
Lоcаtion: Киев (Kyiv, UA)
Age: 45
Name: Andrey
Sifon - 1996 - Generace [256]

mirror: Narod

Странно, но и этот релиз выдержан в духе первого =) Никакого модняка не появилось :dance:

5/10

_________________


Top
 Profile E-mail  
 
 
PostPosted: 24 Sep 2013 
Хиппей (support team)
User avatar
Joined: 30 Jul 2007
Posts: 105036
Lоcаtion: Киев (Kyiv, UA)
Age: 45
Name: Andrey
Sifon - 1999 - Archivni (comp.) [320]

mirror: Narod

Сборник ранних песен.
Весьма неплох, хоть и изубилует хард-роком и наличием клавишных. Но звучит очень приятно и местами дерзко.

6+/10

_________________


Top
 Profile E-mail  
 
 
PostPosted: 24 Sep 2013 
Генеральный thrasher
User avatar
Joined: 03 Oct 2008
Posts: 3405
Lоcаtion: Ханты-Мансийский АО
Age: 43
Name: Сергей
Image

Year:1991 (1997 remastered)
Style:Heavy Metal
Country:Czech Republic
Audio:Ape+Cue+Log+Scans
Size:296Mb
Label:Avik

Line-Up:
Jiří Vébr - drums
Václav Šelmát - guitar,vocal (1,2,5,9)
Michal Vaňek - keyboards,vocal (3,4,6,7,10)
Danny Dobiáš - guitar,vocal (8)
Roman "Gej" Heiny - bass

Tracklist:
01 . Frajer 03:57
02 . 100 Hříchů 04:30
03 . Ďábel v nás 03:38
04 . Zlej sen 04:40
05 . Vítězný trůn 03:21
06 . Dům hrůzy 04:15
07 . Fámy 03:49
08 . Slzy pominou 03:44
09 . Mám svůj den 03:55
10 . Cesta rájem 04:01

"Cue"
REM GENRE "Heavy Metal"
REM DATE 1997
REM DISCID 7C095B0A
REM COMMENT "ExactAudioCopy v1.0b2"
PERFORMER "SIFON"
TITLE "100 Hříchů"
FILE "SIFON - 100 Hříchů.ape" WAVE
TRACK 01 AUDIO
TITLE "Frajer"
PERFORMER "SIFON"
INDEX 01 00:00:00
TRACK 02 AUDIO
TITLE "100 Hшнchщ"
PERFORMER "SIFON"
INDEX 01 03:57:02
TRACK 03 AUDIO
TITLE "Пбbel v nбs"
PERFORMER "SIFON"
INDEX 01 08:27:72
TRACK 04 AUDIO
TITLE "Zlej sen"
PERFORMER "SIFON"
INDEX 01 12:06:24
TRACK 05 AUDIO
TITLE "Vнtмznэ trщn"
PERFORMER "SIFON"
INDEX 01 16:47:04
TRACK 06 AUDIO
TITLE "Dщm hrщzy"
PERFORMER "SIFON"
INDEX 01 20:08:49
TRACK 07 AUDIO
TITLE "Fбmy"
PERFORMER "SIFON"
INDEX 01 24:24:02
TRACK 08 AUDIO
TITLE "Slzy pominou"
PERFORMER "SIFON"
INDEX 01 28:13:74
TRACK 09 AUDIO
TITLE "Mбm svщj den"
PERFORMER "SIFON"
INDEX 01 31:58:37
TRACK 10 AUDIO
TITLE "Cesta rбjem"
PERFORMER "SIFON"
INDEX 01 35:53:69

"Log"
Exact Audio Copy V1.0 beta 2 from 29. April 2011

EAC extraction logfile from 18. April 2012, 11:51

SIFON / 100 Hříchů

Used drive : TSSTcorpCDDVDW SE-S224Q Adapter: 4 ID: 0

Read mode : Secure
Utilize accurate stream : Yes
Defeat audio cache : No
Make use of C2 pointers : Yes

Read offset correction : 6
Overread into Lead-In and Lead-Out : No
Fill up missing offset samples with silence : Yes
Delete leading and trailing silent blocks : No
Null samples used in CRC calculations : Yes
Used interface : Native Win32 interface for Win NT & 2000

Used output format : Monkey's Audio Lossless Encoder
Selected bitrate : Normal Lossless Compression
Quality : High
Add ID3 tag : Yes
Command line compressor : C:\Program Files\Monkey's Audio\MAC.exe


TOC of the extracted CD

Track | Start | Length | Start sector | End sector
---------------------------------------------------------
1 | 0:00.00 | 3:57.02 | 0 | 17776
2 | 3:57.02 | 4:30.70 | 17777 | 38096
3 | 8:27.72 | 3:38.27 | 38097 | 54473
4 | 12:06.24 | 4:40.55 | 54474 | 75528
5 | 16:47.04 | 3:21.45 | 75529 | 90648
6 | 20:08.49 | 4:15.28 | 90649 | 109801
7 | 24:24.02 | 3:49.72 | 109802 | 127048
8 | 28:13.74 | 3:44.38 | 127049 | 143886
9 | 31:58.37 | 3:55.32 | 143887 | 161543
10 | 35:53.69 | 4:01.61 | 161544 | 179679


Range status and errors

Selected range

Filename C:\Users\oldrock\Desktop\SIFON - 100 Hříchů.wav

Peak level 100.0 %
Extraction speed 18.9 X
Range quality 99.9 %
Copy CRC A9B34130
Copy OK

No errors occurred


AccurateRip summary

Track 1 not present in database
Track 2 not present in database
Track 3 not present in database
Track 4 not present in database
Track 5 not present in database
Track 6 not present in database
Track 7 not present in database
Track 8 not present in database
Track 9 not present in database
Track 10 not present in database

None of the tracks are present in the AccurateRip database

End of status report


100 Hříchů


Top
 Profile  
 
 
PostPosted: 24 Sep 2013 
Генеральный thrasher
User avatar
Joined: 03 Oct 2008
Posts: 3405
Lоcаtion: Ханты-Мансийский АО
Age: 43
Name: Сергей
Image

Year:1993
Style:Heavy Metal
Country:Czech Republic
Audio:Ape+Cue+Log+Scans
Size:314Mb
Label:Avik

Line-Up:
Václav Šelmát - guitar,vocal
Michal Vaňek - keyboards,vocal
Jiří Vébr - drums
Danny Dobiáš - bass,vocal
Roman "Gej" Hejný - guitar

Tracklist:
01 . Prázdnej dům 04:49
02 . Poslední rum 04:36
03 . Svou cestou 04:37
04 . Ó Wily Wily 03:59
05 . Soudnej den 05:01
06 . Doteky lásky 03:48
07 . Dej ho tam 03:53
08 . Toulavá 04:23
09 . Vobejda 04:11
10 . Bigbít sílu dává 03:57
11 . Pivní otčenáš 03:24

"Cue"
REM GENRE "Heavy Metal"
REM DATE 1993
REM DISCID 920AF30B
REM COMMENT "ExactAudioCopy v1.0b2"
PERFORMER "SIFON"
TITLE "Soudnej den"
FILE "SIFON - Soudnej den.ape" WAVE
TRACK 01 AUDIO
TITLE "Prбzdnej dщm"
PERFORMER "SIFON"
INDEX 00 00:00:00
INDEX 01 00:00:33
TRACK 02 AUDIO
TITLE "Poslednн rum"
PERFORMER "SIFON"
INDEX 00 04:50:23
INDEX 01 04:50:25
TRACK 03 AUDIO
TITLE "Svou cestou"
PERFORMER "SIFON"
INDEX 01 09:26:38
TRACK 04 AUDIO
TITLE "У Wily Wily"
PERFORMER "SIFON"
INDEX 00 14:03:66
INDEX 01 14:03:68
TRACK 05 AUDIO
TITLE "Soudnej den"
PERFORMER "SIFON"
INDEX 00 18:03:21
INDEX 01 18:03:23
TRACK 06 AUDIO
TITLE "Doteky lбsky"
PERFORMER "SIFON"
INDEX 01 23:04:50
TRACK 07 AUDIO
TITLE "Dej ho tam"
PERFORMER "SIFON"
INDEX 00 26:52:53
INDEX 01 26:52:55
TRACK 08 AUDIO
TITLE "Toulavб"
PERFORMER "SIFON"
INDEX 00 30:46:48
INDEX 01 30:46:50
TRACK 09 AUDIO
TITLE "Vobejda"
PERFORMER "SIFON"
INDEX 01 35:10:33
TRACK 10 AUDIO
TITLE "Bigbнt sнlu dбvб"
PERFORMER "SIFON"
INDEX 00 39:22:16
INDEX 01 39:22:18
TRACK 11 AUDIO
TITLE "Pivnн otиenбљ"
PERFORMER "SIFON"
INDEX 00 43:19:32
INDEX 01 43:19:33

"Log"
Exact Audio Copy V1.0 beta 2 from 29. April 2011

EAC extraction logfile from 17. April 2012, 22:45

SIFON / Soudnej den

Used drive : TSSTcorpCDDVDW SE-S224Q Adapter: 4 ID: 0

Read mode : Secure
Utilize accurate stream : Yes
Defeat audio cache : No
Make use of C2 pointers : Yes

Read offset correction : 6
Overread into Lead-In and Lead-Out : No
Fill up missing offset samples with silence : Yes
Delete leading and trailing silent blocks : No
Null samples used in CRC calculations : Yes
Used interface : Native Win32 interface for Win NT & 2000

Used output format : Monkey's Audio Lossless Encoder
Selected bitrate : Normal Lossless Compression
Quality : High
Add ID3 tag : Yes
Command line compressor : C:\Program Files\Monkey's Audio\MAC.exe


TOC of the extracted CD

Track | Start | Length | Start sector | End sector
---------------------------------------------------------
1 | 0:00.33 | 4:49.67 | 33 | 21774
2 | 4:50.25 | 4:36.13 | 21775 | 42487
3 | 9:26.38 | 4:37.30 | 42488 | 63292
4 | 14:03.68 | 3:59.30 | 63293 | 81247
5 | 18:03.23 | 5:01.27 | 81248 | 103849
6 | 23:04.50 | 3:48.05 | 103850 | 120954
7 | 26:52.55 | 3:53.70 | 120955 | 138499
8 | 30:46.50 | 4:23.58 | 138500 | 158282
9 | 35:10.33 | 4:11.60 | 158283 | 177167
10 | 39:22.18 | 3:57.15 | 177168 | 194957
11 | 43:19.33 | 3:24.30 | 194958 | 210287


Range status and errors

Selected range

Filename C:\Users\oldrock\Desktop\SIFON - Soudnej den.wav

Peak level 98.8 %
Extraction speed 20.2 X
Range quality 100.0 %
Copy CRC 803DF250
Copy OK

No errors occurred


AccurateRip summary

Track 1 cannot be verified as accurate (confidence 1) [BC452B0C], AccurateRip returned [4F731C13] (AR v2)
Track 2 cannot be verified as accurate (confidence 1) [58722CAB], AccurateRip returned [17F1167D] (AR v2)
Track 3 cannot be verified as accurate (confidence 1) [B305350A], AccurateRip returned [098C20C6] (AR v2)
Track 4 cannot be verified as accurate (confidence 1) [2F0285F3], AccurateRip returned [65492660] (AR v2)
Track 5 cannot be verified as accurate (confidence 1) [732A8BC8], AccurateRip returned [D4C7327A] (AR v2)
Track 6 cannot be verified as accurate (confidence 1) [03086283], AccurateRip returned [FD9DE7C4] (AR v2)
Track 7 cannot be verified as accurate (confidence 1) [FE4E12F7], AccurateRip returned [9D00D691] (AR v2)
Track 8 cannot be verified as accurate (confidence 1) [8E5ACF95], AccurateRip returned [93A00469] (AR v2)
Track 9 cannot be verified as accurate (confidence 1) [3FE2D928], AccurateRip returned [3176B4AD] (AR v2)
Track 10 cannot be verified as accurate (confidence 1) [8764520C], AccurateRip returned [1F92EB2D] (AR v2)
Track 11 cannot be verified as accurate (confidence 1) [8D09E860], AccurateRip returned [8F8AA0CC] (AR v2)

No tracks could be verified as accurate
You may have a different pressing from the one(s) in the database

End of status report


Soudnej den


Top
 Profile  
 
 
PostPosted: 24 Sep 2013 
Генеральный thrasher
User avatar
Joined: 03 Oct 2008
Posts: 3405
Lоcаtion: Ханты-Мансийский АО
Age: 43
Name: Сергей
Image

Year:1999
Style:Heavy Metal
Country:Czech Republic
Audio:Ape+Cue+Log+Scans
Size:336Mb
Label:Avik

Tracklist:
01 . Tancovačka 03:31
02 . Nejsi na kolenou 04:17
03 . Cizinec 03:39
04 . Snílek 04:38
05 . Toulavá 05:47
06 . Máš pech 03:36
07 . Léto 86 03:35
08 . Bazar snů 04:17
09 . Fámy 04:04
10 . Návrat 03:54
11 . Vánoční (bonus track) 04:03

"Cue"
REM GENRE "Heavy Metal"
REM DATE 1999
REM DISCID 9B0ABA0B
REM COMMENT "ExactAudioCopy v1.0b2"
PERFORMER "SIFON"
TITLE "Archivní"
FILE "SIFON - Archivní.ape" WAVE
TRACK 01 AUDIO
TITLE "Tancovaиka"
PERFORMER "SIFON"
INDEX 01 00:00:00
TRACK 02 AUDIO
TITLE "Nejsi na kolenou"
PERFORMER "SIFON"
INDEX 00 03:31:65
INDEX 01 03:33:66
TRACK 03 AUDIO
TITLE "Cizinec"
PERFORMER "SIFON"
INDEX 00 07:50:71
INDEX 01 07:53:00
TRACK 04 AUDIO
TITLE "Snнlek"
PERFORMER "SIFON"
INDEX 00 11:32:40
INDEX 01 11:34:44
TRACK 05 AUDIO
TITLE "Toulavб"
PERFORMER "SIFON"
INDEX 00 16:13:38
INDEX 01 16:15:36
TRACK 06 AUDIO
TITLE "Mбљ pech"
PERFORMER "SIFON"
INDEX 00 22:03:05
INDEX 01 22:05:09
TRACK 07 AUDIO
TITLE "Lйto 86"
PERFORMER "SIFON"
INDEX 00 25:42:07
INDEX 01 25:44:10
TRACK 08 AUDIO
TITLE "Bazar snщ"
PERFORMER "SIFON"
INDEX 00 29:20:02
INDEX 01 29:22:04
TRACK 09 AUDIO
TITLE "Fбmy"
PERFORMER "SIFON"
INDEX 00 33:39:12
INDEX 01 33:41:16
TRACK 10 AUDIO
TITLE "Nбvrat"
PERFORMER "SIFON"
INDEX 00 37:45:17
INDEX 01 37:47:19
TRACK 11 AUDIO
TITLE "Vбnoиnн (bonus track)"
PERFORMER "SIFON"
INDEX 00 41:41:32
INDEX 01 41:43:36

"Log"
Exact Audio Copy V1.0 beta 2 from 29. April 2011

EAC extraction logfile from 17. April 2012, 23:22

SIFON / Archivní

Used drive : TSSTcorpCDDVDW SE-S224Q Adapter: 4 ID: 0

Read mode : Secure
Utilize accurate stream : Yes
Defeat audio cache : No
Make use of C2 pointers : Yes

Read offset correction : 6
Overread into Lead-In and Lead-Out : No
Fill up missing offset samples with silence : Yes
Delete leading and trailing silent blocks : No
Null samples used in CRC calculations : Yes
Used interface : Native Win32 interface for Win NT & 2000

Used output format : Monkey's Audio Lossless Encoder
Selected bitrate : Normal Lossless Compression
Quality : High
Add ID3 tag : Yes
Command line compressor : C:\Program Files\Monkey's Audio\MAC.exe


TOC of the extracted CD

Track | Start | Length | Start sector | End sector
---------------------------------------------------------
1 | 0:00.00 | 3:33.66 | 0 | 16040
2 | 3:33.66 | 4:19.09 | 16041 | 35474
3 | 7:53.00 | 3:41.44 | 35475 | 52093
4 | 11:34.44 | 4:40.67 | 52094 | 73160
5 | 16:15.36 | 5:49.48 | 73161 | 99383
6 | 22:05.09 | 3:39.01 | 99384 | 115809
7 | 25:44.10 | 3:37.69 | 115810 | 132153
8 | 29:22.04 | 4:19.12 | 132154 | 151590
9 | 33:41.16 | 4:06.03 | 151591 | 170043
10 | 37:47.19 | 3:56.17 | 170044 | 187760
11 | 41:43.36 | 4:03.01 | 187761 | 205986


Range status and errors

Selected range

Filename C:\Users\oldrock\Desktop\SIFON - Archivní.wav

Peak level 100.0 %
Extraction speed 20.0 X
Range quality 100.0 %
Copy CRC 5D1B9A14
Copy OK

No errors occurred


AccurateRip summary

Track 1 not present in database
Track 2 not present in database
Track 3 not present in database
Track 4 not present in database
Track 5 not present in database
Track 6 not present in database
Track 7 not present in database
Track 8 not present in database
Track 9 not present in database
Track 10 not present in database
Track 11 not present in database

None of the tracks are present in the AccurateRip database

End of status report


Archivní


Top
 Profile  
 
Display posts from previous:  Sort by  
Post new topic Reply to topic  [ 94 posts ]  Go to page Previous  1, 2, 3, 4, 5  Next

All times are UTC + 3 hours


Who is online

Users browsing this forum: No registered users and 3 guests


You cannot post new topics in this forum
You cannot reply to topics in this forum
You cannot edit your posts in this forum
You cannot delete your posts in this forum
You cannot post attachments in this forum

Search for:
Яндекс.Метрика
Powered by phpBB © 2000, 2002, 2005, 2007 phpBB Group