\m/ 80's metal \m/

Информационно-аналитический форум "80 см пыли" (In Search We Trust) "У нас никто никуда не спешит"
Me For You - http://me-4u.com
It is currently 29 Mar 2020

All times are UTC + 3 hours

Spoiler
Chat - temporary registration for foreign users (please leave your application here)







Post new topic Reply to topic  [ 7 posts ] 
Author Message
 
PostPosted: 08 Jan 2010 
А может смените мне статус?..
User avatar
Joined: 22 Nov 2008
Posts: 973
Lоcаtion: Schelcovo,Russia
Age: 48
Name: Сергей
Image
Sircle of Silence - Sircle Of Silence (1993) [flac+cue+log]Koch International
Image
Genre: Power Metal
Year: 1993
Country: USA (Los Angeles, California)
Bitrate: flac+cue+log/mp3
Size: 346Mb/109Mb
Image
line-up:
David Reece (Vocals)
Larry Farkas (Guitars)
Chris Colovas (Bass)
Jay Schellen (Drums)
Image
Produced by James 'Jimbo' Barton and Tim Bomba
1.Color Blind 03:35
2.Talk To Myself 04:14
3.Bring Me A Miracle 03:54
4.Pieces of a Fallin' Star 03:57
5.Craving 04:34
6.Angels Cryin' 04:00
7.Death By a Word 03:16
8.Livin' Above the Law 05:24
9.Landslide 04:53
10.Dancin' On the Sun 0348
11.Words Get Lost 03:49
12.Slow Burn 03:19
Total playing time 48:47
http://narod.ru/disk/16609368000/Sircle%20of%20Silence%20-%20Sircle%20of%20Silence%20(1994)%20320%20kbps.rar.htmlmp3
http://narod.ru/disk/16609019000/Sircle%20of%20Silence%20-%20Sircle%20of%20Silence%20(1994).rar.htmlflac
Здесь обложка с японского издания,но у меня немецкое Koch International.Позже выложу сканы.


Top
 Profile  
 
 
PostPosted: 28 Jan 2010 
Прокъмитолист
User avatar
Joined: 12 Aug 2007
Posts: 6697
Lоcаtion: Санктъ-Петербуркъ
Age: 52
Name: Олекъ
забрал, спасибо :thanx:

_________________
прокъметол - это музыко, от которово есть прок (ы)


Top
 Profile  
 
 
PostPosted: 28 Jan 2010 
Power Metal Maniac
User avatar
Joined: 09 Aug 2008
Posts: 7121
Lоcаtion: Москва
Age: 42
Name: Егор
не забыть скачать :thanx:

_________________
Long Live Metal!


Top
 Profile  
 
 
PostPosted: 14 Dec 2019 
А может смените мне статус?..
Joined: 03 Jul 2009
Posts: 897
Lоcаtion: Serbia
Name: Laki
Anyone with Suicide Candyman in lossless?


Top
 Profile E-mail  
 
 
PostPosted: 15 Dec 2019 
Хиппей (support team)
User avatar
Joined: 30 Jul 2007
Posts: 118437
Lоcаtion: Киев (Kyiv, UA)
Age: 46
Name: Andrey
Упс. А я только подобрался к теме.

Перезалейте, пожалуйста, кто качал лосика :thanx:

_________________


Top
 Profile E-mail  
 
 
PostPosted: 15 Dec 2019 
Хиппей (support team)
User avatar
Joined: 30 Jul 2007
Posts: 118437
Lоcаtion: Киев (Kyiv, UA)
Age: 46
Name: Andrey
Ааа, ну первый есть на Трахторе. Качаю :arrow: https://rutracker.org/forum/viewtopic.php?t=2615344

_________________


Top
 Profile E-mail  
 
 
PostPosted: 20 Dec 2019 
Хиппей (support team)
User avatar
Joined: 30 Jul 2007
Posts: 118437
Lоcаtion: Киев (Kyiv, UA)
Age: 46
Name: Andrey
Sircle of Silence - 1994 - Sircle of Silence [flac]

Image Image

mirror: Ur-Files l Telega l Uloz l Narod

Тот редкий случай, когда вокалист затмевают блеклую музычку группы :pardon:

5/10

Image Image

log
Отчёт EAC об извлечении, выполненном 5. января 2010, 15:10 для диска:
Sircle of Silence / Sircle of Silence

Дисковод: MATSHITADVD-RAM UJ-850S Adapter: 2 ID: 0
Режим чтения: Достоверный (C2: нет, Точный поток: да, Отключение кэша: да)
Коррекция смещения при чтении: 102
Способность читать области Lead-in и Lead-out : Нет

Выходной формат: Внутренние WAV-операции
44.100 Гц; 16 бит; стерео

Другие параметры:
Заполнение пропущенных сэмплов тишиной : Да
Удаление блоков с тишиной в начале и конце : Нет
Установленный внешний ASPI-интерфейс


Характеристики диапазона извлечения и сообщения об ошибках
Выбранный диапазон
Имя файла D:\Мои Документы\Моя музыка\Sircle of Silence - Sircle of Silence.wav

Пиковый уровень 97.6 %
Качество диапазона 100.0 %
CRC 096A3BC9
Копирование... OK

Ошибок не произошло

Конец отчёта

cue
REM GENRE Metal
REM DATE 1994
REM DISCID A50B6C0C
REM COMMENT "ExactAudioCopy v0.95b4"
PERFORMER "Sircle of Silence"
TITLE "Sircle of Silence"
FILE "Sircle of Silence - Sircle of Silence.flac" WAVE
TRACK 01 AUDIO
TITLE "Color Blind"
PERFORMER "Sircle of Silence"
INDEX 01 00:00:00
TRACK 02 AUDIO
TITLE "Talk To Myself"
PERFORMER "Sircle of Silence"
INDEX 01 03:30:62
TRACK 03 AUDIO
TITLE "Bring Me A Miricle"
PERFORMER "Sircle of Silence"
INDEX 00 07:46:42
INDEX 01 07:48:70
TRACK 04 AUDIO
TITLE "Pieces Of A Fallin' Star"
PERFORMER "Sircle of Silence"
INDEX 01 11:42:52
TRACK 05 AUDIO
TITLE "Craving"
PERFORMER "Sircle of Silence"
INDEX 01 15:39:70
TRACK 06 AUDIO
TITLE "Angels Cryin"
PERFORMER "Sircle of Silence"
INDEX 01 20:14:40
TRACK 07 AUDIO
TITLE "Death By A Word"
PERFORMER "Sircle of Silence"
INDEX 01 24:14:37
TRACK 08 AUDIO
TITLE "Living Above The Law"
PERFORMER "Sircle of Silence"
INDEX 01 27:30:45
TRACK 09 AUDIO
TITLE "Landslide"
PERFORMER "Sircle of Silence"
INDEX 01 32:54:55
TRACK 10 AUDIO
TITLE "Dancin On The Sun"
PERFORMER "Sircle of Silence"
INDEX 00 37:45:70
INDEX 01 37:47:65
TRACK 11 AUDIO
TITLE "Words Get Lost"
PERFORMER "Sircle of Silence"
INDEX 01 41:35:67
TRACK 12 AUDIO
TITLE "Slow Burn"
PERFORMER "Sircle of Silence"
INDEX 01 45:25:25

_________________


Top
 Profile E-mail  
 
Display posts from previous:  Sort by  
Post new topic Reply to topic  [ 7 posts ] 

All times are UTC + 3 hours


Who is online

Users browsing this forum: No registered users and 2 guests


You cannot post new topics in this forum
You cannot reply to topics in this forum
You cannot edit your posts in this forum
You cannot delete your posts in this forum
You cannot post attachments in this forum

Search for:
Яндекс.Метрика
cron
Powered by phpBB © 2000, 2002, 2005, 2007 phpBB Group