\m/ 80's metal \m/

Информационно-аналитический форум "80 см пыли" (In Search We Trust) "У нас никто никуда не спешит"
Me For You - http://me-4u.com
It is currently 20 Sep 2018

All times are UTC + 3 hours

Spoiler
Chat - temporary registration for foreign users (please leave your application here)







Post new topic Reply to topic  [ 6 posts ] 
Author Message
 
PostPosted: 07 Jan 2010 
Old Time Rock`n`Roll
User avatar
Joined: 23 Jun 2008
Posts: 3354
Lоcаtion: г.Ульяновск
Age: 40
Name: Константин
Survivor – Eye Of The Tiger

Image

Year: 1982
Style: AOR, Melodic Hard Rock
Country: USA
Format: FLAC + log + cue & mp3-320
Size: 257 Mb + 91 Mb

Tracklist
01. Eye Of The Tiger (4:06)
02. Feels Like Love (4:08)
03. Hesitation Dance (3:52)
04. The One That Really Matters (3:32)
05. I'm Not That Man Anymore (4:49)
06. Children Of The Night (4:45)
07. Ever Since The World Began (3:46)
08. American Heartbeat (4:10)
09. Silver Girl (4:52)

TPT – 38:05

Line-Up
Dave Bickler - Vocals, Keyboards
Frankie Sullivan - Guitar, Vocals
Jim Peterik Guitar, Keyboards, Vocals
Marc Droubay Drums
Stephan Ellis Bass

Album Credits:
Produced: Frankie Sullivan/Jim Peterik

Chart Position:
USA # 2
UK # 12
Sweden # 13
New Zealand # 23
Austria # 6
Germany # 31

Charting Singles:
American Heartbeat
USA # 17 Germany # 55
The One That Really Matters
USA # 74
Eye Of The Tiger
USA # 1
UK # 1
Sweden # 5
Switzerland # 6
Canada # 1
Austria # 2
Germany # 13

Grammy Award
Eye Of The Tiger (song) - Best Rock Performance By A Duo Or Group With Vocal (1982)

Log
Exact Audio Copy V0.99 prebeta 4 from 23. January 2008

EAC extraction logfile from 7. June 2009, 20:31

Survivor / Eye Of The Tiger

Used drive : PLEXTOR DVDR PX-810SA Adapter: 5 ID: 1

Read mode : Secure
Utilize accurate stream : Yes
Defeat audio cache : Yes
Make use of C2 pointers : No

Read offset correction : 48
Overread into Lead-In and Lead-Out : No
Fill up missing offset samples with silence : Yes
Delete leading and trailing silent blocks : No
Null samples used in CRC calculations : Yes
Used interface : Installed external ASPI interface

Used output format : Internal WAV Routines
Sample format : 44.100 Hz; 16 Bit; Stereo


TOC of the extracted CD

Track | Start | Length | Start sector | End sector
---------------------------------------------------------
1 | 0:00.32 | 4:06.18 | 32 | 18499
2 | 4:06.50 | 4:08.72 | 18500 | 37171
3 | 8:15.47 | 3:52.55 | 37172 | 54626
4 | 12:08.27 | 3:32.30 | 54627 | 70556
5 | 15:40.57 | 4:49.03 | 70557 | 92234
6 | 20:29.60 | 4:45.15 | 92235 | 113624
7 | 25:15.00 | 3:46.72 | 113625 | 130646
8 | 29:01.72 | 4:10.53 | 130647 | 149449
9 | 33:12.50 | 4:52.45 | 149450 | 171394


Range status and errors

Selected range

Filename I:\HQShare\Survivor\Survivor - Eye Of The Tiger.wav

Peak level 100.0 %
Range quality 99.9 %
Copy CRC 0CEE4401
Copy OK

No errors occurred

End of status report


Cue
REM GENRE "Hard Rock"
REM DATE 1982
REM DISCID 7808ED09
REM COMMENT "ExactAudioCopy v0.99pb4"
CATALOG 0075990521620
PERFORMER "Survivor"
TITLE "Eye Of The Tiger"
FILE "Survivor - Eye Of The Tiger.wav" WAVE
TRACK 01 AUDIO
TITLE "Eye Of The Tiger"
PERFORMER "Survivor"
INDEX 00 00:00:00
INDEX 01 00:00:32
TRACK 02 AUDIO
TITLE "Feels Like Love"
PERFORMER "Survivor"
INDEX 00 04:04:52
INDEX 01 04:06:50
TRACK 03 AUDIO
TITLE "Hesitation Dance"
PERFORMER "Survivor"
INDEX 00 08:13:67
INDEX 01 08:15:47
TRACK 04 AUDIO
TITLE "The One That Really Matters"
PERFORMER "Survivor"
INDEX 00 12:06:52
INDEX 01 12:08:27
TRACK 05 AUDIO
TITLE "I'm Not That Man Anymore"
PERFORMER "Survivor"
INDEX 00 15:36:57
INDEX 01 15:40:57
TRACK 06 AUDIO
TITLE "Children Of The Night"
PERFORMER "Survivor"
INDEX 00 20:28:05
INDEX 01 20:29:60
TRACK 07 AUDIO
TITLE "Ever Since The World Began"
PERFORMER "Survivor"
INDEX 00 25:14:37
INDEX 01 25:15:00
TRACK 08 AUDIO
TITLE "American Heartbeat"
PERFORMER "Survivor"
INDEX 00 28:56:10
INDEX 01 29:01:72
TRACK 09 AUDIO
TITLE "Silver Girl"
PERFORMER "Survivor"
INDEX 00 33:11:45
INDEX 01 33:12:50


FLAC
megaupload-FLAC
narod-FLAC

mp3-320
narod-320

Как-то готовясь к съемкам Рокки-3 Сильвестр Сталлоне услышал записи первых альбомов Survivor и они жутко ему понравились. Сильвестр разыскал музыкантов и попросил их написать песню к 3-й части своего сериала:
– Парни, ну, напишите мне песню, напишите, напишите!
Музыканты Survivor были людьми добрыми и не отказали, да и как откажешь-то голливудской звезде?
– Да, напишем мы тебе, Слай, напишем, не боись, все тип-топ будет.
И написали Eye Of The Tyger. И стала песня интернациональным хитом. И получила песня премию Грэмми.
Релиз с HQShare, автор рипа – Midnight Show

Image


Top
 Profile  
 
 
PostPosted: 07 Jan 2010 
хард н хэвщик (support team)
User avatar
Joined: 02 Jun 2008
Posts: 16880
Lоcаtion: Н.Новгород
Age: 31
Name: Артем
мне помимо заглавной нравится еще 05. I'm Not That Man Anymore (4:49)


Top
 Profile  
 
 
PostPosted: 07 Jan 2010 
Old Time Rock`n`Roll
User avatar
Joined: 23 Jun 2008
Posts: 3354
Lоcаtion: г.Ульяновск
Age: 40
Name: Константин
Да, гитарное соло там отменное.
Ну и еще конечно American Heartbeat.


Top
 Profile  
 
 
PostPosted: 08 Jan 2010 
Анатолий
User avatar
Joined: 18 Oct 2008
Posts: 3116
Lоcаtion: Армавир
Age: 41
Name: Анатолий
Да уж... звон регалий слышен даже до входа в топик. ;) :smile:


Top
 Profile E-mail  
 
 
PostPosted: 24 Aug 2013 
парень в очёчкXаX!
User avatar
Joined: 15 Aug 2007
Posts: 2353
Lоcаtion: UK'раина, г. ЛондАн Би-Би-Си
Age: 47
Name: Сергей
материал отменный!
сочный и шикарный звук, запись, сделанная более 30-ти лет назад просто потрясающе ложится на уХи! )))
:true: :meloman: :true:
:thanx:


Top
 Profile  
 
 
PostPosted: 24 Aug 2013 
Old Time Rock`n`Roll
User avatar
Joined: 23 Jun 2008
Posts: 3354
Lоcаtion: г.Ульяновск
Age: 40
Name: Константин
Сталлоне знал, к кому надо обращаться ))


Top
 Profile  
 
Display posts from previous:  Sort by  
Post new topic Reply to topic  [ 6 posts ] 

All times are UTC + 3 hours


Who is online

Users browsing this forum: No registered users and 1 guest


You cannot post new topics in this forum
You cannot reply to topics in this forum
You cannot edit your posts in this forum
You cannot delete your posts in this forum
You cannot post attachments in this forum

Search for:
Яндекс.Метрика
Powered by phpBB © 2000, 2002, 2005, 2007 phpBB Group