\m/ 80's metal \m/

Информационно-аналитический форум "80 см пыли" (In Search We Trust) "У нас никто никуда не спешит"
Me For You - http://me-4u.com
It is currently 16 Nov 2018

All times are UTC + 3 hours

Spoiler
Chat - temporary registration for foreign users (please leave your application here)







Post new topic Reply to topic  [ 15 posts ] 
Author Message
 
PostPosted: 23 Nov 2009 
хард н хэвщик (support team)
User avatar
Joined: 02 Jun 2008
Posts: 16880
Lоcаtion: Н.Новгород
Age: 31
Name: Артем
Image

Saint Collection Disc 2: Too Late For Living + The Perfect Life

Year: 2003
Label: Armor Records
Style: Christian Heavy Metal
Country: US
Format: APE+CUE
Source: получил по обмену

Официальное переиздание ранних альбомов (1989 + 1999), не бутлег

Too Late For Living - 1989:
Too Late For Living
Star Pilot
Accuser
The Rock
On the Street
The Return
The Path
Through the Sky
The War is Over

The Perfect Life - 1999:
The Runner
Raise Your Hands
Show His Love
Too Live Forever
The Perfect Life
Deceived

cue | +
REM GENRE Gospel
REM DATE 1989
REM DISCID ED0DF90F
REM COMMENT "ExactAudioCopy v0.95b4"
PERFORMER "The Saint Collection Disk 2"
TITLE "Too Late For Living - The Perfect Life"
FILE "The Saint Collection Disk 2 - Too Late For Living - The Perfect Life.wav" WAVE
TRACK 01 AUDIO
TITLE "Too Late for Living"
PERFORMER "The Saint Collection Disk 2"
INDEX 01 00:00:00
TRACK 02 AUDIO
TITLE "Star Pilot"
PERFORMER "The Saint Collection Disk 2"
INDEX 01 03:56:25
TRACK 03 AUDIO
TITLE "Accuser"
PERFORMER "The Saint Collection Disk 2"
INDEX 01 07:26:08
TRACK 04 AUDIO
TITLE "The Rock"
PERFORMER "The Saint Collection Disk 2"
INDEX 01 09:27:29
TRACK 05 AUDIO
TITLE "On the Street"
PERFORMER "The Saint Collection Disk 2"
INDEX 01 12:16:35
TRACK 06 AUDIO
TITLE "The Return"
PERFORMER "The Saint Collection Disk 2"
INDEX 01 15:55:03
TRACK 07 AUDIO
TITLE "The Path"
PERFORMER "The Saint Collection Disk 2"
INDEX 01 20:24:05
TRACK 08 AUDIO
TITLE "Through the Sky"
PERFORMER "The Saint Collection Disk 2"
INDEX 01 24:23:30
TRACK 09 AUDIO
TITLE "The War is Over"
PERFORMER "The Saint Collection Disk 2"
INDEX 01 28:15:02
TRACK 10 AUDIO
TITLE "The Runner"
PERFORMER "The Saint Collection Disk 2"
INDEX 01 32:18:35
TRACK 11 AUDIO
TITLE "Raise Your Hands"
PERFORMER "The Saint Collection Disk 2"
INDEX 01 36:51:20
TRACK 12 AUDIO
TITLE "Show His Love"
PERFORMER "The Saint Collection Disk 2"
INDEX 01 40:27:32
TRACK 13 AUDIO
TITLE "To Live Forever"
PERFORMER "The Saint Collection Disk 2"
INDEX 01 45:27:09
TRACK 14 AUDIO
TITLE "The Perfect Life"
PERFORMER "The Saint Collection Disk 2"
INDEX 01 49:42:49
TRACK 15 AUDIO
TITLE "Deceived"
PERFORMER "The Saint Collection Disk 2"
INDEX 01 53:37:67
Для тех, кто не знаком с группой:

phpBB [youtube]


почитать: http://www.nolifetilmetal.com/saint.htm

сканы + cue можно забрать здесь: http://www.multiupload.com/FHTPNAKIZY
ape файл здесь: http://www.multiupload.com/J3DQNY1YE5


Top
 Profile  
 
 
PostPosted: 24 Nov 2009 
труъ антисионист
User avatar
Joined: 01 Aug 2007
Posts: 4541
Lоcаtion: Откуда и большинство из нас
Age: 37
Name: Дядя Вова
Огромное спасибо, естественно хотелось бы продолжение банкета :true:

_________________
Image
Image


Top
 Profile  
 
 
PostPosted: 24 Nov 2009 
HAMMER
User avatar
Joined: 16 May 2009
Posts: 5449
Lоcаtion: Тверь
Age: 45
Name: Александр
Спасибо


Top
 Profile E-mail  
 
 
PostPosted: 24 Nov 2009 
А может смените мне статус?..
Joined: 12 Dec 2008
Posts: 988
Lоcаtion: BULGARIA
Age: 40
Name: DIMITЪR
ЕЕЕЕ най-накрая досетился доставить материалчик :true:
Спасибо!!! :thanx:


Top
 Profile  
 
 
PostPosted: 24 Nov 2009 
Труъ
User avatar
Joined: 14 Jul 2009
Posts: 158
Lоcаtion: Hell Is Here
Age: 48
Name: Adriano
Many Thanx !! :thanx:


Top
 Profile E-mail  
 
 
PostPosted: 26 Nov 2009 
А может смените мне статус?..
User avatar
Joined: 08 Nov 2007
Posts: 634
Lоcаtion: Crimea, UA
Age: 32
Name: Анатолий
Благодарности! :thanx:


Top
 Profile  
 
 
PostPosted: 27 Nov 2009 
А может смените мне статус?..
Joined: 12 Dec 2008
Posts: 988
Lоcаtion: BULGARIA
Age: 40
Name: DIMITЪR
Error decoding file,ето получилось . :dash:

Image


Top
 Profile  
 
 
PostPosted: 27 Nov 2009 
хард н хэвщик (support team)
User avatar
Joined: 02 Jun 2008
Posts: 16880
Lоcаtion: Н.Новгород
Age: 31
Name: Артем
Димитр, скачай свежую версию Monkey audio codec
download and install the newest version of Monkey Audio codec


Top
 Profile  
 
 
PostPosted: 28 Nov 2009 
А может смените мне статус?..
Joined: 12 Dec 2008
Posts: 988
Lоcаtion: BULGARIA
Age: 40
Name: DIMITЪR
Saint - The Hell Blade[2009] (4 Sample Songs)
The Blade
Hell Train
New World Order
Hell Blade
http://www.mediafire.com/?4h1tdnyjznn

Звучить очень обнадеждаващо, хорошенко.


Top
 Profile  
 
 
PostPosted: 28 Nov 2009 
Прокъмитолист
User avatar
Joined: 12 Aug 2007
Posts: 6504
Lоcаtion: Санктъ-Петербуркъ
Age: 51
Name: Олекъ
спасибо, Артем! забрал :thanx: хотелось бы до кучи и первый диск из этого переиздания :oops:

_________________
прокъметол - это музыко, от которово есть прок (ы)


Top
 Profile  
 
 
PostPosted: 28 Nov 2009 
хард н хэвщик (support team)
User avatar
Joined: 02 Jun 2008
Posts: 16880
Lоcаtion: Н.Новгород
Age: 31
Name: Артем
будет


Top
 Profile  
 
 
PostPosted: 22 Dec 2009 
Я набрал 1000 сообщений!
User avatar
Joined: 25 Dec 2008
Posts: 1545
Age: 43
Name: Павел
Блин,Артем,спасибо!Послушал-"потерянный" альбом Judas Priest!Все ждут первый диск антологии. :zayaz:


Top
 Profile  
 
 
PostPosted: 22 Dec 2009 
хард н хэвщик (support team)
User avatar
Joined: 02 Jun 2008
Posts: 16880
Lоcаtion: Н.Новгород
Age: 31
Name: Артем
будет, всё будет


Top
 Profile  
 
 
PostPosted: 25 Apr 2010 
Я набрал 1000 сообщений!
User avatar
Joined: 25 Dec 2008
Posts: 1545
Age: 43
Name: Павел
Артем,не забыл? :meloman:


Top
 Profile  
 
 
PostPosted: 25 Apr 2010 
хард н хэвщик (support team)
User avatar
Joined: 02 Jun 2008
Posts: 16880
Lоcаtion: Н.Новгород
Age: 31
Name: Артем
ой, не скоро, но наверное успею сделать


Top
 Profile  
 
Display posts from previous:  Sort by  
Post new topic Reply to topic  [ 15 posts ] 

All times are UTC + 3 hours


Who is online

Users browsing this forum: No registered users and 1 guest


You cannot post new topics in this forum
You cannot reply to topics in this forum
You cannot edit your posts in this forum
You cannot delete your posts in this forum
You cannot post attachments in this forum

Search for:
Яндекс.Метрика
Powered by phpBB © 2000, 2002, 2005, 2007 phpBB Group