\m/ 80's metal \m/

Информационно-аналитический форум "80 см пыли" (In Search We Trust) "У нас никто никуда не спешит"
Железнодорожная биржа - RailAgent
It is currently 22 Jul 2018

All times are UTC + 3 hours

Spoiler
Chat - temporary registration for foreign users (please leave your application here)







Post new topic Reply to topic  [ 3 posts ] 
Author Message
 
PostPosted: 16 Nov 2009 
Old Time Rock`n`Roll
User avatar
Joined: 23 Jun 2008
Posts: 3342
Lоcаtion: г.Ульяновск
Age: 39
Name: Константин
Sea Hags – Sea Hags (1989) – APE

Image

Year: 1989 (2007 Reissued)
Style: Hard Rock
Country: USA
Format: APE + log + cue + scans & mp3-320
Size: 368Mb/123 Mb

Tracklist
01. Half The Way Valley (3:05)
02. Doghouse (4:28)
03. Too Much T-Bone (3:10)
04. Someday (5:05)
05. Back To The Grind (4:17)
06. Bunkbed Creek (2:31)
07. In The Mood For Love (3:06)
08. Miss Fortune (4:24)
09. All The Time (3:41)
10. Three's A Charm (2:41)
11. Under The Night Stars (4:07)
12. Dog House [Demo/2007 Bonus Track]
13. Half Way The Valley [Demo/2007 Bonus Track]

TPT – 49:01

Line-Up
Adam Maples - Drums
Chris Schlosshardt - Bass, Vocals
Frankie Wilsey - Guitar
Ron Yocom - Vocals, Guitar

Album Credits:
Produced: Mike Clink
Engineered: Mike Clink
Additional Engineering: Dan Marnien
Mixed: Paul Lani
Mixed: Chris Lord-Alge # 5
Mixed: Mike Clink # 11
Mixed: Paul Lani/Mike Clink # 7, 8, 10
Mastered: George Marino

Additional Players:
Kevin Russell - Guitar

Chart Position
USA # 163

Spectres
Image

Log
EAC extraction logfile from 27. December 2007, 20:13 for CD
Sea Hags / Sea Hags

Used drive : PLEXTOR CD-R PX-230A Adapter: 0 ID: 1
Read mode : Secure with NO C2, accurate stream, disable cache
Read offset correction : 738
Overread into Lead-In and Lead-Out : No

Used output format : C:\Programmi\Exact Audio Copy\MAC.EXE (Monkey's Audio Lossless Encoder)
High Lossless Compression

Other options :
Fill up missing offset samples with silence : Yes
Delete leading and trailing silent blocks : No
Native Win32 interface for Win NT & 2000


Range status and errors
Selected range
Filename C:\Documents and Settings\oem\Documenti\Musica\Sea Hags - Sea Hags\Sea Hags - Sea Hags.wav.wav

Peak level 99.9 %
Range quality 100.0 %
CRC 33997FDC
Copy OK

No errors occured

End of status report


Cue
REM GENRE "Hard Rock"
REM DATE 2007
REM DISCID B50B7D0D
REM COMMENT "ExactAudioCopy v0.95b4"
PERFORMER "Sea Hags"
TITLE "Sea Hags"
FILE "Sea Hags - Sea Hags.wav" WAVE
TRACK 01 AUDIO
TITLE "Track01"
PERFORMER "Sea Hags"
INDEX 01 00:00:00
TRACK 02 AUDIO
TITLE "Track02"
PERFORMER "Sea Hags"
INDEX 01 03:03:12
TRACK 03 AUDIO
TITLE "Track03"
PERFORMER "Sea Hags"
INDEX 01 07:33:19
TRACK 04 AUDIO
TITLE "Track04"
PERFORMER "Sea Hags"
INDEX 01 10:43:74
TRACK 05 AUDIO
TITLE "Track05"
PERFORMER "Sea Hags"
INDEX 01 15:54:38
TRACK 06 AUDIO
TITLE "Track06"
PERFORMER "Sea Hags"
INDEX 01 20:14:56
TRACK 07 AUDIO
TITLE "Track07"
PERFORMER "Sea Hags"
INDEX 01 22:46:50
TRACK 08 AUDIO
TITLE "Track08"
PERFORMER "Sea Hags"
INDEX 01 25:54:66
TRACK 09 AUDIO
TITLE "Track09"
PERFORMER "Sea Hags"
INDEX 01 30:21:50
TRACK 10 AUDIO
TITLE "Track10"
PERFORMER "Sea Hags"
INDEX 01 34:04:66
TRACK 11 AUDIO
TITLE "Track11"
PERFORMER "Sea Hags"
INDEX 01 36:47:71
TRACK 12 AUDIO
TITLE "Track12"
PERFORMER "Sea Hags"
INDEX 01 41:02:26
TRACK 13 AUDIO
TITLE "Track13"
PERFORMER "Sea Hags"
INDEX 01 46:08:14


APE
narod-APE


mp3-320
megaupload-320


Нечто среднее между Guns N`Roses – Aerosmith – Faster Pussycat – Jetboy, единственный альбом группы, которая разрушила себя наркотиками.
ММТ, автор релиза - rockberto

Image


Top
 Profile  
 
 
PostPosted: 17 Nov 2009 
Почётный металлург
User avatar
Joined: 15 Sep 2007
Posts: 4357
Lоcаtion: Хабаровск
Age: 58
Name: чуть выше
Был когда-то фирмовый СД в начале 90-х. Хороший хардец. Нравился больше Гансов, когда я их еще слушал.. А здесь с бонусами, качну, ознакомлюсь.
:thanx:

_________________
Коль будешь людей ты ослами честить,
тебе человеком меж них не прослыть!
(Саади, персидский поэт, 13в.)


Top
 Profile  
 
 
PostPosted: 17 Nov 2009 
HAMMER
User avatar
Joined: 16 May 2009
Posts: 5330
Lоcаtion: Тверь
Age: 45
Name: Александр
Thanks


Top
 Profile E-mail  
 
Display posts from previous:  Sort by  
Post new topic Reply to topic  [ 3 posts ] 

All times are UTC + 3 hours


Who is online

Users browsing this forum: No registered users and 3 guests


You cannot post new topics in this forum
You cannot reply to topics in this forum
You cannot edit your posts in this forum
You cannot delete your posts in this forum
You cannot post attachments in this forum

Search for:
Яндекс.Метрика
Powered by phpBB © 2000, 2002, 2005, 2007 phpBB Group