\m/ 80's metal \m/

Информационно-аналитический форум "80 см пыли" (In Search We Trust) "У нас никто никуда не спешит"
Me For You - http://me-4u.com
It is currently 16 Nov 2018

All times are UTC + 3 hours

Spoiler
Chat - temporary registration for foreign users (please leave your application here)







Post new topic Reply to topic  [ 19 posts ] 
Author Message
 
PostPosted: 09 Nov 2009 
Просто волшебник
User avatar
Joined: 01 Mar 2008
Posts: 1244
Name: Андрей
Sin Starlett - Call To The Punisher (2008)

Image

Tracklist

1. Intro
2. Boozing Days
3. Overtaker
4. Resurrection of Death
5. Forever Gone
6. Mendacity
7. Addicted To Metal
8. Sin After Sin
9. Call To The Punisher
10. Winds Of Fury

http://www.metal-archives.com/release.php?id=216798


Top
 Profile  
 
 
PostPosted: 04 Jul 2011 
Хиппей (support team)
User avatar
Joined: 30 Jul 2007
Posts: 108037
Lоcаtion: Киев (Kyiv, UA)
Age: 45
Name: Andrey
Из чата сообщают:
Quote:
Sin Starlett есть песни на youtube и вот полезная ссылка http://www.myspace.com/sinstarlett


Ну, насколько полезная, не знаю. Вряд ли музыканты вышлют еще достаточно свежий свой альбом в мп3.
Не отписывался пока, смысла не вижу.


А вот по Ютубу позже пошастаю....

phpBB [youtube]

_________________


Top
 Profile E-mail  
 
 
PostPosted: 04 Jul 2011 
спирт 100%
User avatar
Joined: 22 Sep 2008
Posts: 4312
Age: 47
Name: Саня
У меня есть 6 песен с этого альбома , давно зачем то скачивал в интернете .


Top
 Profile  
 
 
PostPosted: 04 Jul 2011 
хард н хэвщик (support team)
User avatar
Joined: 02 Jun 2008
Posts: 16880
Lоcаtion: Н.Новгород
Age: 31
Name: Артем
я думаю, Андрюха более не заинтересован во всех этих запросах. :oops:


Top
 Profile  
 
 
PostPosted: 04 Jul 2011 
Хиппей (support team)
User avatar
Joined: 30 Jul 2007
Posts: 108037
Lоcаtion: Киев (Kyiv, UA)
Age: 45
Name: Andrey
Артём, а ты с ним связь поддерживаешь?

Кста, насколько понял по звуку, это все же старая группа?

_________________


Top
 Profile E-mail  
 
 
PostPosted: 04 Jul 2011 
хард н хэвщик (support team)
User avatar
Joined: 02 Jun 2008
Posts: 16880
Lоcаtion: Н.Новгород
Age: 31
Name: Артем
Scatterbrain wrote:
Артём, а ты с ним связь поддерживаешь?

давненько не списывались :vic:


Top
 Profile  
 
 
PostPosted: 04 Jul 2011 
Хиппей (support team)
User avatar
Joined: 30 Jul 2007
Posts: 108037
Lоcаtion: Киев (Kyiv, UA)
Age: 45
Name: Andrey
Мдя... Ну, надеюсь, у него всё нормально и иногда к нам заглядывает :dance:

_________________


Top
 Profile E-mail  
 
 
PostPosted: 18 Jan 2014 
Rara avis
User avatar
Joined: 27 Jan 2009
Posts: 4672
Name: .
http://rutracker.org/forum/viewtopic.php?t=4384607


Top
 Profile E-mail  
 
 
PostPosted: 18 Jan 2014 
Хиппей (support team)
User avatar
Joined: 30 Jul 2007
Posts: 108037
Lоcаtion: Киев (Kyiv, UA)
Age: 45
Name: Andrey
:thanx:

_________________


Top
 Profile E-mail  
 
 
PostPosted: 29 Jan 2014 
Дежурный по КУПу
User avatar
Joined: 17 Aug 2007
Posts: 5869
Age: 50
Name: Ге
У кого-нибудь получилось лося с рутрекера стянуть?

_________________
http://jp-mania.ru/
http://jp-tourdates.ucoz.ru/


Top
 Profile  
 
 
PostPosted: 29 Jan 2014 
Partisanen - nicht kapitulieren!!
User avatar
Joined: 25 Dec 2011
Posts: 6755
Lоcаtion: партизанские леса
Age: 46
Name: Владимир
http://www.metalmadness.org/phpBB2/view ... hp?t=49577
тут ещё есть, качается потихоньку...

_________________
One more beer and Heavy Metal and I'm just fine!
старовер, куле... слово "блин" - до сих пор через Ъ говорю


Top
 Profile E-mail  
 
 
PostPosted: 29 Jan 2014 
\m/ 80 см сала \m/
User avatar
Joined: 12 Mar 2012
Posts: 2589
Age: 25
Name: Nick
http://forum.darksage.ru/forum/80-17777-1 :oops:

_________________
1990 AUROPHON BRAINSTORM (Germany) - lossless
1994 MAUSOLEUM CLASSIX (Belgium-Germany) - lossless
1998 VA - GRIM HARVEST - Complete Metal Massacre Volumes I-XII


Top
 Profile  
 
 
PostPosted: 29 Jan 2014 
Дежурный по КУПу
User avatar
Joined: 17 Aug 2007
Posts: 5869
Age: 50
Name: Ге
Я там в группе не состою :oops:

_________________
http://jp-mania.ru/
http://jp-tourdates.ucoz.ru/


Top
 Profile  
 
 
PostPosted: 29 Jan 2014 
\m/ 80 см сала \m/
User avatar
Joined: 12 Mar 2012
Posts: 2589
Age: 25
Name: Nick
:shok: я забыл об ограничениях, хм
Надеюсь, никто сильно не обидится: Sin Starlett - Call To The Punisher

_________________
1990 AUROPHON BRAINSTORM (Germany) - lossless
1994 MAUSOLEUM CLASSIX (Belgium-Germany) - lossless
1998 VA - GRIM HARVEST - Complete Metal Massacre Volumes I-XII


Top
 Profile  
 
 
PostPosted: 29 Jan 2014 
Partisanen - nicht kapitulieren!!
User avatar
Joined: 25 Dec 2011
Posts: 6755
Lоcаtion: партизанские леса
Age: 46
Name: Владимир
Everhard
:thanx:

mirror
rusfolder : mail.ru

_________________
One more beer and Heavy Metal and I'm just fine!
старовер, куле... слово "блин" - до сих пор через Ъ говорю


Top
 Profile E-mail  
 
 
PostPosted: 29 Jan 2014 
спирт 100%
User avatar
Joined: 22 Sep 2008
Posts: 4312
Age: 47
Name: Саня
:thanx: Спасибо!


Top
 Profile  
 
 
PostPosted: 29 Jan 2014 
Дежурный по КУПу
User avatar
Joined: 17 Aug 2007
Posts: 5869
Age: 50
Name: Ге
:thanx: Спасибо! :true:

_________________
http://jp-mania.ru/
http://jp-tourdates.ucoz.ru/


Top
 Profile  
 
 
PostPosted: 29 Jan 2014 
Хиппей (support team)
User avatar
Joined: 30 Jul 2007
Posts: 108037
Lоcаtion: Киев (Kyiv, UA)
Age: 45
Name: Andrey
У кого-нибудь получилось лося с рутрекера стянуть?

Ни байтика :cry:
Хотя источник полный каждый день торчит там.
Явно надо было тор-файлик обновить :vic:


Спасибо всем за лосика :thanx:

ImageImage Image Image

mirror: Narod l M-Cloud

log
Exact Audio Copy V0.99 prebeta 5 from 4. May 2009

EAC extraction logfile from 18. March 2013, 20:50

Sin Starlett / Call To The Punisher

Used drive : HL-DT-STDVD-RAM GH22NP20 Adapter: 0 ID: 0

Read mode : Secure
Utilize accurate stream : Yes
Defeat audio cache : Yes
Make use of C2 pointers : No

Read offset correction : 102
Overread into Lead-In and Lead-Out : No
Fill up missing offset samples with silence : Yes
Delete leading and trailing silent blocks : No
Null samples used in CRC calculations : Yes
Used interface : Native Win32 interface for Win NT & 2000

Used output format : User Defined Encoder
Selected bitrate : 32 kBit/s
Quality : High
Add ID3 tag : No
Command line compressor : C:\Programme\Exact Audio Copy\FLAC.EXE
Additional command line options : -6 -V %s


TOC of the extracted CD

Track | Start | Length | Start sector | End sector
---------------------------------------------------------
1 | 0:00.00 | 1:25.57 | 0 | 6431
2 | 1:25.57 | 4:55.04 | 6432 | 28560
3 | 6:20.61 | 4:16.00 | 28561 | 47760
4 | 10:36.61 | 7:22.05 | 47761 | 80915
5 | 17:58.66 | 4:33.63 | 80916 | 101453
6 | 22:32.54 | 3:37.59 | 101454 | 117787
7 | 26:10.38 | 5:35.31 | 117788 | 142943
8 | 31:45.69 | 5:51.00 | 142944 | 169268
9 | 37:36.69 | 5:21.53 | 169269 | 193396
10 | 42:58.47 | 7:04.21 | 193397 | 225217


Range status and errors

Selected range

Filename D:\MMT\SIN STARLETT [2008] [CD] Call To The Punisher [EAC-FLAC] by Long Metalhead [MeTaLMaDNeSS.TeaM]\Call To The Punisher\Sin Starlett - Call To The Punisher.wav

Peak level 100.0 %
Range quality 100.0 %
Copy CRC B299CFF6
Copy OK

No errors occurred


AccurateRip summary

Track 1 not present in database
Track 2 not present in database
Track 3 not present in database
Track 4 not present in database
Track 5 not present in database
Track 6 not present in database
Track 7 not present in database
Track 8 not present in database
Track 9 not present in database
Track 10 not present in database

None of the tracks are present in the AccurateRip database

End of status report

cue
REM GENRE "Heavy Metal"
REM DATE 2008
REM DISCID 850BBA0A
REM COMMENT "ExactAudioCopy v0.99pb5"
PERFORMER "Sin Starlett"
TITLE "Call To The Punisher"
FILE "Sin Starlett - Call To The Punisher.flac" WAVE
TRACK 01 AUDIO
TITLE "King's Prelude (Intro)"
PERFORMER "Sin Starlett"
FLAGS DCP
INDEX 01 00:00:00
TRACK 02 AUDIO
TITLE "Boozing Days"
PERFORMER "Sin Starlett"
FLAGS DCP
INDEX 01 01:25:57
TRACK 03 AUDIO
TITLE "The Overtaker"
PERFORMER "Sin Starlett"
FLAGS DCP
INDEX 01 06:20:61
TRACK 04 AUDIO
TITLE "Resurrection Of Death"
PERFORMER "Sin Starlett"
FLAGS DCP
INDEX 01 10:36:61
TRACK 05 AUDIO
TITLE "Forever Gone"
PERFORMER "Sin Starlett"
FLAGS DCP
INDEX 01 17:58:66
TRACK 06 AUDIO
TITLE "Mendacity"
PERFORMER "Sin Starlett"
FLAGS DCP
INDEX 01 22:32:54
TRACK 07 AUDIO
TITLE "Addicted To Metal"
PERFORMER "Sin Starlett"
FLAGS DCP
INDEX 01 26:10:38
TRACK 08 AUDIO
TITLE "Sin After Sin"
PERFORMER "Sin Starlett"
FLAGS DCP
INDEX 01 31:45:69
TRACK 09 AUDIO
TITLE "Call To The Punisher"
PERFORMER "Sin Starlett"
FLAGS DCP
INDEX 01 37:36:69
TRACK 10 AUDIO
TITLE "Winds Of Fury"
PERFORMER "Sin Starlett"
FLAGS DCP
INDEX 01 42:58:47

_________________


Top
 Profile E-mail  
 
 
PostPosted: 06 Feb 2014 
Power Metal Maniac
User avatar
Joined: 09 Aug 2008
Posts: 6352
Lоcаtion: Москва
Age: 40
Name: Егор
:thanx:

_________________
Long Live Metal!


Top
 Profile  
 
Display posts from previous:  Sort by  
Post new topic Reply to topic  [ 19 posts ] 

All times are UTC + 3 hours


Who is online

Users browsing this forum: No registered users and 3 guests


You cannot post new topics in this forum
You cannot reply to topics in this forum
You cannot edit your posts in this forum
You cannot delete your posts in this forum
You cannot post attachments in this forum

Search for:
Яндекс.Метрика
cron
Powered by phpBB © 2000, 2002, 2005, 2007 phpBB Group