\m/ 80's metal \m/

Информационно-аналитический форум "80 см пыли" (In Search We Trust) "У нас никто никуда не спешит"
Me For You - http://me-4u.com
It is currently 20 Nov 2018

All times are UTC + 3 hours

Spoiler
Chat - temporary registration for foreign users (please leave your application here)







Post new topic Reply to topic  [ 28 posts ]  Go to page Previous  1, 2
Author Message
 
PostPosted: 14 Apr 2012 
Хиппей (support team)
User avatar
Joined: 30 Jul 2007
Posts: 108205
Lоcаtion: Киев (Kyiv, UA)
Age: 45
Name: Andrey
Sahara [1996] [CD] Self Ego (1997 Japan) [EAC-FLAC] by spiralarch [MeTaLMaDNeSS.TeaM]

Image

mirror: Speedy l Narod

log
Exact Audio Copy V1.0 beta 1 from 15. November 2010

EAC extraction logfile from 9. April 2012, 18:18

Sahara / Self Ego (1997 Japan)

Used drive : Optiarc DVD RW AD-7240S Adapter: 2 ID: 0

Read mode : Secure
Utilize accurate stream : Yes
Defeat audio cache : Yes
Make use of C2 pointers : No

Read offset correction : 48
Overread into Lead-In and Lead-Out : No
Fill up missing offset samples with silence : Yes
Delete leading and trailing silent blocks : No
Null samples used in CRC calculations : Yes
Used interface : Native Win32 interface for Win NT & 2000

Used output format : Internal WAV Routines
Sample format : 44.100 Hz; 16 Bit; Stereo


TOC of the extracted CD

Track | Start | Length | Start sector | End sector
---------------------------------------------------------
1 | 0:00.00 | 7:51.60 | 0 | 35384
2 | 7:51.60 | 7:05.12 | 35385 | 67271
3 | 14:56.72 | 3:58.13 | 67272 | 85134
4 | 18:55.10 | 5:58.32 | 85135 | 112016
5 | 24:53.42 | 7:52.15 | 112017 | 147431
6 | 32:45.57 | 4:22.53 | 147432 | 167134
7 | 37:08.35 | 4:29.67 | 167135 | 187376
8 | 41:38.27 | 4:59.73 | 187377 | 209874


Range status and errors

Selected range

Filename D:\spiralarch\Sahara - Self Ego (1997 Japan).wav

Peak level 100.0 %
Extraction speed 0.4 X
Range quality 100.0 %
Copy CRC E1B9F64B
Copy OK

No errors occurred


AccurateRip summary

Track 1 not present in database
Track 2 not present in database
Track 3 not present in database
Track 4 not present in database
Track 5 not present in database
Track 6 not present in database
Track 7 not present in database
Track 8 not present in database

None of the tracks are present in the AccurateRip database

End of status report

==== Log checksum C534B50A4EA696042EDA0698C4321985BF8FBB1E2025BE4A132025E6F246FE6E ====

cue
REM GENRE "Progressive Metal"
REM DATE 1996
REM DISCID 6D0AEE08
REM COMMENT "ExactAudioCopy v1.0b1"
PERFORMER "Sahara"
TITLE "Self Ego (1997 Japan)"
FILE "Sahara - Self Ego (1997 Japan).flac" WAVE
TRACK 01 AUDIO
TITLE "Agony Of A Drifter"
PERFORMER "Sahara"
INDEX 01 00:00:00
TRACK 02 AUDIO
TITLE "Pheromone"
PERFORMER "Sahara"
INDEX 01 07:51:60
TRACK 03 AUDIO
TITLE "To The End Of Reality"
PERFORMER "Sahara"
INDEX 00 14:55:72
INDEX 01 14:56:72
TRACK 04 AUDIO
TITLE "The Future Inside An Illusion"
PERFORMER "Sahara"
INDEX 01 18:55:10
TRACK 05 AUDIO
TITLE "Lust For Conquest"
PERFORMER "Sahara"
INDEX 01 24:53:42
TRACK 06 AUDIO
TITLE "Destiny Is Waiting"
PERFORMER "Sahara"
INDEX 01 32:45:57
TRACK 07 AUDIO
TITLE "What I'm Dreaming Of"
PERFORMER "Sahara"
INDEX 01 37:08:35
TRACK 08 AUDIO
TITLE "Until You Know Me"
PERFORMER "Sahara"
INDEX 00 41:36:50
INDEX 01 41:38:27

_________________


Top
 Profile E-mail  
 
 
PostPosted: 14 Apr 2012 
Прокъмитолист
User avatar
Joined: 12 Aug 2007
Posts: 6504
Lоcаtion: Санктъ-Петербуркъ
Age: 51
Name: Олекъ
я смотрю, Андрюха уже сам справился, пока у меня народ тупил (не нужна альтернативная ссылка?) :crazy:

з.ы. а чего не в бухту?

_________________
прокъметол - это музыко, от которово есть прок (ы)


Top
 Profile  
 
 
PostPosted: 28 Apr 2012 
Хиппей (support team)
User avatar
Joined: 30 Jul 2007
Posts: 108205
Lоcаtion: Киев (Kyiv, UA)
Age: 45
Name: Andrey
spiralarch wrote:
а чего не в бухту?

Ой, а ж не дооформил еще. Спасибо, что напомнил =)

_________________


Top
 Profile E-mail  
 
 
PostPosted: 23 Jul 2012 
Труъ
User avatar
Joined: 05 Oct 2008
Posts: 194
Lоcаtion: Saint Petersburg
Age: 45
Name: Jesse
Что-то я не понял... а первый альбом лось есть или нет? А то только на мп3 ссылка.. :esel:


Top
 Profile  
 
 
PostPosted: 24 Jul 2012 
Хиппей (support team)
User avatar
Joined: 30 Jul 2007
Posts: 108205
Lоcаtion: Киев (Kyiv, UA)
Age: 45
Name: Andrey
Не-а, тута точно не было первого в л0се :zayaz:
У Олега в подписи тоже не видать :oops:

_________________


Top
 Profile E-mail  
 
 
PostPosted: 24 Jul 2012 
Прокъмитолист
User avatar
Joined: 12 Aug 2007
Posts: 6504
Lоcаtion: Санктъ-Петербуркъ
Age: 51
Name: Олекъ
первого не было. судя по рецухам, там совсем другая музыка, меня не заинтересовало.

_________________
прокъметол - это музыко, от которово есть прок (ы)


Top
 Profile  
 
 
PostPosted: 24 Jul 2012 
Хиппей (support team)
User avatar
Joined: 30 Jul 2007
Posts: 108205
Lоcаtion: Киев (Kyiv, UA)
Age: 45
Name: Andrey
О, ну тада и с хрен с ним :dance:

Эх, пошёл я спать со своим :umnik:

_________________


Top
 Profile E-mail  
 
 
PostPosted: 18 Sep 2013 
Хиппей (support team)
User avatar
Joined: 30 Jul 2007
Posts: 108205
Lоcаtion: Киев (Kyiv, UA)
Age: 45
Name: Andrey
McKagan wrote:
Sahara (Kor) - The Seven Years of Drought

Начал слушать...
Как-то не понял я этот альбом с первого раза. Оставлю на потом :vic:

И по оказии снова само-собой отзеркалилось :oops:

mirror: Narod

_________________


Top
 Profile E-mail  
 
Display posts from previous:  Sort by  
Post new topic Reply to topic  [ 28 posts ]  Go to page Previous  1, 2

All times are UTC + 3 hours


Who is online

Users browsing this forum: No registered users and 1 guest


You cannot post new topics in this forum
You cannot reply to topics in this forum
You cannot edit your posts in this forum
You cannot delete your posts in this forum
You cannot post attachments in this forum

Search for:
Яндекс.Метрика
Powered by phpBB © 2000, 2002, 2005, 2007 phpBB Group