\m/ 80's metal \m/

Информационно-аналитический форум "80 см пыли" (In Search We Trust) "У нас никто никуда не спешит"
Me For You - http://me-4u.com
It is currently 01 Apr 2020

All times are UTC + 3 hours

Spoiler
Chat - temporary registration for foreign users (please leave your application here)







Post new topic Reply to topic  [ 35 posts ]  Go to page Previous  1, 2
Author Message
 
PostPosted: 12 Feb 2019 
Генеральный thrasher
User avatar
Joined: 03 Oct 2008
Posts: 3751
Lоcаtion: Ханты-Мансийский АО
Age: 45
Name: Сергей
Забирайте лося кому надо...

https://mega.nz/#!QJkFRIDI!cEAn_WIuiJax ... lj2SL5tjrc


Top
 Profile  
 
 
PostPosted: 12 Feb 2019 
консэрваторъ
User avatar
Joined: 11 Aug 2007
Posts: 17574
Lоcаtion: Псков
Age: 46
Name: Сергей
Серёг, а ты залил именно это?
Glot wrote:
Год: 1984 [Re 1999]
Лейбл: Axe Killer Records

1999 Axe Killer 3046402
И второй вопрос, откуда у тебя нетрэш?.. :benya:

_________________
THRASH 'EM ALL


Top
 Profile E-mail  
 
 
PostPosted: 13 Feb 2019 
Генеральный thrasher
User avatar
Joined: 03 Oct 2008
Posts: 3751
Lоcаtion: Ханты-Мансийский АО
Age: 45
Name: Сергей
Серёг, а ты залил именно это?
Glot wrote:
Год: 1984 [Re 1999]
Лейбл: Axe Killer Records



Думаю да.

И второй вопрос, откуда у тебя нетрэш?.. :benya:


Не знаю. Аж стыдно стало,что такое в коллекции хранится. :benya:


Top
 Profile  
 
 
PostPosted: 14 Feb 2019 
Работнечег
User avatar
Joined: 28 Aug 2007
Posts: 6195
Lоcаtion: г. Москва
Age: 31
Name: Дима
:crazy: :thanx:


Top
 Profile E-mail  
 
 
PostPosted: 15 Feb 2019 
Хиппей (support team)
User avatar
Joined: 30 Jul 2007
Posts: 118455
Lоcаtion: Киев (Kyiv, UA)
Age: 46
Name: Andrey
Забирайте лося кому надо...

https://mega.nz/#!QJkFRIDI!cEAn_WIuiJax ... lj2SL5tjrc

:thanx:

Satan Jokers - 1984 - Trop Fou Pour Toi [flac]

Image Image Image

mirror: Uloz l Drop l Narod l M-Cloud

log
Exact Audio Copy V0.99 prebeta 4 from 23. January 2008

Отчёт EAC об извлечении, выполненном 31. июля 2009, 20:40

Satan Jockers / Trop fou pour toi

Дисковод: Optiarc DVD RW AD-5200A Adapter: 5 ID: 1

Режим чтения : Достоверность
Использование точного потока : Да
Отключение кэша аудио : Да
Использование указателей C2 : Нет

Коррекция смещения при чтении : 48
Способность читать области Lead-in и Lead-out : Нет
Заполнение пропущенных сэмплов тишиной : Да
Удаление блоков с тишиной в начале и конце : Нет
При вычислениях CRC использовались нулевые сэмплы : Да
Интерфейс : Встроенный Win32-интерфейс для Win NT/2000

Выходной формат : Внутренние WAV-операции
Формат сэмплов : 44.100 Гц; 16 бит; стерео
Смещение при сжатии : 0


TOC извлечённого CD

Трек | Старт | Длительность | Начальный сектор | Конечный сектор
---------------------------------------------------------------------
1 | 0:00.00 | 3:25.74 | 0 | 15448
2 | 3:25.74 | 2:24.67 | 15449 | 26315
3 | 5:50.66 | 3:36.13 | 26316 | 42528
4 | 9:27.04 | 4:31.58 | 42529 | 62911
5 | 13:58.62 | 3:51.41 | 62912 | 80277
6 | 17:50.28 | 4:09.35 | 80278 | 98987
7 | 21:59.63 | 5:07.25 | 98988 | 122037
8 | 27:07.13 | 3:41.53 | 122038 | 138665
9 | 30:48.66 | 3:25.38 | 138666 | 154078
10 | 34:14.29 | 3:32.71 | 154079 | 170049
11 | 37:47.25 | 2:23.70 | 170050 | 180844
12 | 40:11.20 | 3:36.07 | 180845 | 197051
13 | 43:47.27 | 4:32.32 | 197052 | 217483
14 | 48:19.59 | 3:49.67 | 217484 | 234725
15 | 52:09.51 | 4:17.34 | 234726 | 254034
16 | 56:27.10 | 5:04.40 | 254035 | 276874
17 | 61:31.50 | 3:36.46 | 276875 | 293120
18 | 65:08.21 | 3:09.30 | 293121 | 307325


Характеристики диапазона извлечения и сообщения об ошибках

Выбранный диапазон

Имя файла E:\АРЕ\1tor\Satan Jokers - 1984 - Trop Fou Pour Toi\Satan Jockers - Trop fou pour toi.wav

Пиковый уровень 100.0 %
Качество диапазона 99.9 %
CRC копии 133DE988
Копирование... OK

Ошибок не произошло

Конец отчёта

cue
REM GENRE rock
REM DATE 1984
REM DISCID F0100112
REM COMMENT "ExactAudioCopy v0.99pb4"
PERFORMER "Satan Jockers"
TITLE "Trop fou pour toi"
FILE "Satan Jockers - Trop fou pour toi.flac" WAVE
TRACK 01 AUDIO
TITLE "pas frequentables"
PERFORMER "Satan Jockers"
INDEX 01 00:00:00
TRACK 02 AUDIO
TITLE "sabbat"
PERFORMER "Satan Jockers"
INDEX 00 03:25:72
INDEX 01 03:25:74
TRACK 03 AUDIO
TITLE "adrien"
PERFORMER "Satan Jockers"
INDEX 00 05:50:57
INDEX 01 05:50:66
TRACK 04 AUDIO
TITLE "infidele"
PERFORMER "Satan Jockers"
INDEX 01 09:27:04
TRACK 05 AUDIO
TITLE "la marche heretique"
PERFORMER "Satan Jockers"
INDEX 00 13:58:59
INDEX 01 13:58:62
TRACK 06 AUDIO
TITLE "trp fou pour toi"
PERFORMER "Satan Jockers"
INDEX 00 17:50:25
INDEX 01 17:50:28
TRACK 07 AUDIO
TITLE "par habitude"
PERFORMER "Satan Jockers"
INDEX 01 21:59:63
TRACK 08 AUDIO
TITLE "vices prives"
PERFORMER "Satan Jockers"
INDEX 01 27:07:13
TRACK 09 AUDIO
TITLE "envie de toi"
PERFORMER "Satan Jockers"
INDEX 01 30:48:66
TRACK 10 AUDIO
TITLE "not respectable"
PERFORMER "Satan Jockers"
INDEX 00 34:14:27
INDEX 01 34:14:29
TRACK 11 AUDIO
TITLE "welcome to the sabbath"
PERFORMER "Satan Jockers"
INDEX 01 37:47:25
TRACK 12 AUDIO
TITLE "adrian"
PERFORMER "Satan Jockers"
INDEX 00 40:11:07
INDEX 01 40:11:20
TRACK 13 AUDIO
TITLE "unfaithful"
PERFORMER "Satan Jockers"
INDEX 00 43:47:22
INDEX 01 43:47:27
TRACK 14 AUDIO
TITLE "the heretic march"
PERFORMER "Satan Jockers"
INDEX 00 48:19:51
INDEX 01 48:19:59
TRACK 15 AUDIO
TITLE "too crazy for you"
PERFORMER "Satan Jockers"
INDEX 00 52:09:45
INDEX 01 52:09:51
TRACK 16 AUDIO
TITLE "don't let darkness fill my days"
PERFORMER "Satan Jockers"
INDEX 01 56:27:10
TRACK 17 AUDIO
TITLE "private vices"
PERFORMER "Satan Jockers"
INDEX 00 61:31:41
INDEX 01 61:31:50
TRACK 18 AUDIO
TITLE "i want you right now"
PERFORMER "Satan Jockers"
INDEX 00 65:08:15
INDEX 01 65:08:21

_________________


Top
 Profile E-mail  
 
 
PostPosted: 15 Feb 2019 
Труъ
User avatar
Joined: 28 Mar 2013
Posts: 188
Lоcаtion: Parana-Brazil
Age: 55
Name: Pedro Gabriel Lanza
:thanx:


Top
 Profile E-mail  
 
 
PostPosted: 15 Feb 2019 
спирт 100%
User avatar
Joined: 22 Sep 2008
Posts: 4526
Age: 48
Name: Саня
:thanx:


Top
 Profile  
 
 
PostPosted: 15 Feb 2019 
Работнечег
User avatar
Joined: 28 Aug 2007
Posts: 6195
Lоcаtion: г. Москва
Age: 31
Name: Дима
А этого у тебя нет, Серег?


Top
 Profile E-mail  
 
 
PostPosted: 16 Feb 2019 
Генеральный thrasher
User avatar
Joined: 03 Oct 2008
Posts: 3751
Lоcаtion: Ханты-Мансийский АО
Age: 45
Name: Сергей
https://mega.nz/#!pIkF3CwZ!5Zz_amvqSBuj ... Q3X2zoBi7Y


Top
 Profile  
 
 
PostPosted: 16 Feb 2019 
Работнечег
User avatar
Joined: 28 Aug 2007
Posts: 6195
Lоcаtion: г. Москва
Age: 31
Name: Дима
:thanx:


Top
 Profile E-mail  
 
 
PostPosted: 17 Feb 2019 
Труъ
User avatar
Joined: 28 Mar 2013
Posts: 188
Lоcаtion: Parana-Brazil
Age: 55
Name: Pedro Gabriel Lanza
https://mega.nz/#!pIkF3CwZ!5Zz_amvqSBuj6SKuMGsoP46mFQzoMM-AdQ3X2zoBi7Y

:true:


Top
 Profile E-mail  
 
 
PostPosted: 18 Feb 2019 
Хиппей (support team)
User avatar
Joined: 30 Jul 2007
Posts: 118455
Lоcаtion: Киев (Kyiv, UA)
Age: 46
Name: Andrey
:thanx:

Satan Jokers - 1983 - Les Fils Du Metal [flac]

Image Image Image

miror: Uloz l Drop l Narod l M-Cloud

log
Exact Audio Copy V0.99 prebeta 4 from 23. January 2008

Отчёт EAC об извлечении, выполненном 31. июля 2009, 20:26

Satan Jokers / Les fils du Metal

Дисковод: Optiarc DVD RW AD-5200A Adapter: 5 ID: 1

Режим чтения : Достоверность
Использование точного потока : Да
Отключение кэша аудио : Да
Использование указателей C2 : Нет

Коррекция смещения при чтении : 48
Способность читать области Lead-in и Lead-out : Нет
Заполнение пропущенных сэмплов тишиной : Да
Удаление блоков с тишиной в начале и конце : Нет
При вычислениях CRC использовались нулевые сэмплы : Да
Интерфейс : Встроенный Win32-интерфейс для Win NT/2000

Выходной формат : Внутренние WAV-операции
Формат сэмплов : 44.100 Гц; 16 бит; стерео
Смещение при сжатии : 0


TOC извлечённого CD

Трек | Старт | Длительность | Начальный сектор | Конечный сектор
---------------------------------------------------------------------
1 | 0:00.00 | 0:43.62 | 0 | 3286
2 | 0:43.62 | 4:34.15 | 3287 | 23851
3 | 5:18.02 | 3:28.58 | 23852 | 39509
4 | 8:46.60 | 4:01.40 | 39510 | 57624
5 | 12:48.25 | 3:34.35 | 57625 | 73709
6 | 16:22.60 | 4:37.51 | 73710 | 94535
7 | 21:00.36 | 3:38.48 | 94536 | 110933
8 | 24:39.09 | 3:33.73 | 110934 | 126981
9 | 28:13.07 | 4:07.70 | 126982 | 145576
10 | 32:21.02 | 2:37.67 | 145577 | 157418
11 | 34:58.69 | 6:34.20 | 157419 | 186988
12 | 41:33.14 | 4:34.02 | 186989 | 207540
13 | 46:07.16 | 3:33.35 | 207541 | 223550
14 | 49:40.51 | 3:30.63 | 223551 | 239363


Характеристики диапазона извлечения и сообщения об ошибках

Выбранный диапазон

Имя файла E:\АРЕ\1tor\Satan Jokers - 1983 - Les Fils Du Metal\Satan Jokers - Les fils du Metal.wav

Пиковый уровень 100.0 %
Качество диапазона 100.0 %
CRC копии A14ED4BF
Копирование... OK

Ошибок не произошло

Конец отчёта

cue
REM GENRE "Heavy Metal"
REM DATE 1983
REM DISCID C50C770E
REM COMMENT "ExactAudioCopy v0.99pb4"
PERFORMER "Satan Jokers"
TITLE "Les fils du Metal"
FILE "Satan Jokers - Les fils du Metal.flac" WAVE
TRACK 01 AUDIO
TITLE "Prelude"
PERFORMER "Satan Jokers"
INDEX 01 00:00:00
TRACK 02 AUDIO
TITLE "Les fils du Metal"
PERFORMER "Satan Jokers"
INDEX 01 00:43:62
TRACK 03 AUDIO
TITLE "Samourai"
PERFORMER "Satan Jokers"
INDEX 01 05:18:02
TRACK 04 AUDIO
TITLE "Tokyo Geпsha"
PERFORMER "Satan Jokers"
INDEX 01 08:46:60
TRACK 05 AUDIO
TITLE "Offrande"
PERFORMER "Satan Jokers"
INDEX 01 12:48:25
TRACK 06 AUDIO
TITLE "Derriиre les portes closes"
PERFORMER "Satan Jokers"
INDEX 01 16:22:60
TRACK 07 AUDIO
TITLE "En partance pour l'Enfer"
PERFORMER "Satan Jokers"
INDEX 01 21:00:36
TRACK 08 AUDIO
TITLE "Age de confusion"
PERFORMER "Satan Jokers"
INDEX 00 24:39:02
INDEX 01 24:39:09
TRACK 09 AUDIO
TITLE "Les forces malefiques"
PERFORMER "Satan Jokers"
INDEX 01 28:13:07
TRACK 10 AUDIO
TITLE "Le fouet"
PERFORMER "Satan Jokers"
INDEX 01 32:21:02
TRACK 11 AUDIO
TITLE "Quand les hйros se meurent"
PERFORMER "Satan Jokers"
INDEX 01 34:58:69
TRACK 12 AUDIO
TITLE "Sons of Metal [English Version]"
PERFORMER "Satan Jokers"
INDEX 00 41:33:13
INDEX 01 41:33:14
TRACK 13 AUDIO
TITLE "Offering [English Version]"
PERFORMER "Satan Jokers"
INDEX 01 46:07:16
TRACK 14 AUDIO
TITLE "Samurai [English Version]"
PERFORMER "Satan Jokers"
INDEX 01 49:40:51

_________________


Top
 Profile E-mail  
 
 
PostPosted: 18 Feb 2019 
Хиппей (support team)
User avatar
Joined: 30 Jul 2007
Posts: 118455
Lоcаtion: Киев (Kyiv, UA)
Age: 46
Name: Andrey
Обе темы по группе объединены в одну.

_________________


Top
 Profile E-mail  
 
 
PostPosted: 18 Feb 2019 
Хиппей (support team)
User avatar
Joined: 30 Jul 2007
Posts: 118455
Lоcаtion: Киев (Kyiv, UA)
Age: 46
Name: Andrey
Оба альбома культовые.
Ну.. для Франции культовые. А так музыка довольно вторична и ничем особо не отличается от иных коллективов.
Французский язык хоть и приятно "ложится на ухо", но группа по типу советско-российского "Августа", например - на того ещё любителя хэви.
Композиции с англоязычной лирикой хороши, но ещё раз повторюсь, ничего особенного в них нет.

6+/10

За оба первых альбома.

_________________


Top
 Profile E-mail  
 
 
PostPosted: 06 Apr 2019 
Хиппей (support team)
User avatar
Joined: 30 Jul 2007
Posts: 118455
Lоcаtion: Киев (Kyiv, UA)
Age: 46
Name: Andrey
Satan Jokers [flacs] - live

Image

mirror: Ur-Files l Uloz l Narod l M-Cloud


Откуда этот 4-песенный ливничек взялся, понять не могу :vic:

_________________


Top
 Profile E-mail  
 
Display posts from previous:  Sort by  
Post new topic Reply to topic  [ 35 posts ]  Go to page Previous  1, 2

All times are UTC + 3 hours


Who is online

Users browsing this forum: No registered users and 2 guests


You cannot post new topics in this forum
You cannot reply to topics in this forum
You cannot edit your posts in this forum
You cannot delete your posts in this forum
You cannot post attachments in this forum

Search for:
Яндекс.Метрика
Powered by phpBB © 2000, 2002, 2005, 2007 phpBB Group