\m/ 80's metal \m/

Информационно-аналитический форум "80 см пыли" (In Search We Trust) "У нас никто никуда не спешит"
Me For You - http://me-4u.com
It is currently 20 Nov 2018

All times are UTC + 3 hours

Spoiler
Chat - temporary registration for foreign users (please leave your application here)







Post new topic Reply to topic  [ 5 posts ] 
Author Message
 
PostPosted: 04 Oct 2009 
труъ антисионист
User avatar
Joined: 01 Aug 2007
Posts: 4541
Lоcаtion: Откуда и большинство из нас
Age: 37
Name: Дядя Вова
Image
Группа: Satan Jokers
Альбом: Les Fils Du Metal
Год: 1983 [Re 1999]
Лейбл: Axe Killer Records
Стиль: Heavy Metal
Страна: FRA
Формат: Image / Log / Cue / Covers
Размер: 465 Mb

Спасибо камраду gatherone с Торрент.сру
******************************************************************************

Line Up:

* Renaud Hantson - Drums
* Pierre Guiraud - Vocal
* Stephane Bonneau - Guitar
* Laurent Bernat - Bass

Tracks:
1.Prelude (0:43)
2. Les fils du Metal (4:35)
3. Samourai (3:28)
4. Tokyo Geпsha (4:02)
5. Offrande (3:34)
6. Derriиre les portes closes (4:38)
7. En partance pour l'Enfer (3:39)
8. Age de confusion (3:34)
9. Les forces malefiques (4:08)
10. Le fouet (2:37)
11. Quand les hйros se meurent (6:35)
12. Sons of Metal [English Version] (4:34)
13. Offering [English Version] (3:33)
14. Samurai [English Version] (3:31)


LOG
Exact Audio Copy V0.99 prebeta 4 from 23. January 2008
Отчёт EAC об извлечении, выполненном 31. июля 2009, 20:26
Satan Jokers / Les fils du Metal
Дисковод: Optiarc DVD RW AD-5200A Adapter: 5 ID: 1
Режим чтения : Достоверность
Использование точного потока : Да
Отключение кэша аудио : Да
Использование указателей C2 : Нет
Коррекция смещения при чтении : 48
Способность читать области Lead-in и Lead-out : Нет
Заполнение пропущенных сэмплов тишиной : Да
Удаление блоков с тишиной в начале и конце : Нет
При вычислениях CRC использовались нулевые сэмплы : Да
Интерфейс : Встроенный Win32-интерфейс для Win NT/2000
Выходной формат : Внутренние WAV-операции
Формат сэмплов : 44.100 Гц; 16 бит; стерео
Смещение при сжатии : 0
TOC извлечённого CD
Трек | Старт | Длительность | Начальный сектор | Конечный сектор
---------------------------------------------------------------------
1 | 0:00.00 | 0:43.62 | 0 | 3286
2 | 0:43.62 | 4:34.15 | 3287 | 23851
3 | 5:18.02 | 3:28.58 | 23852 | 39509
4 | 8:46.60 | 4:01.40 | 39510 | 57624
5 | 12:48.25 | 3:34.35 | 57625 | 73709
6 | 16:22.60 | 4:37.51 | 73710 | 94535
7 | 21:00.36 | 3:38.48 | 94536 | 110933
8 | 24:39.09 | 3:33.73 | 110934 | 126981
9 | 28:13.07 | 4:07.70 | 126982 | 145576
10 | 32:21.02 | 2:37.67 | 145577 | 157418
11 | 34:58.69 | 6:34.20 | 157419 | 186988
12 | 41:33.14 | 4:34.02 | 186989 | 207540
13 | 46:07.16 | 3:33.35 | 207541 | 223550
14 | 49:40.51 | 3:30.63 | 223551 | 239363
Характеристики диапазона извлечения и сообщения об ошибках
Выбранный диапазон
Имя файла E:\АРЕ\1tor\Satan Jokers - 1983 - Les Fils Du Metal\Satan Jokers - Les fils du Metal.wav
Пиковый уровень 100.0 %
Качество диапазона 100.0 %
CRC копии A14ED4BF
Копирование... OK
Ошибок не произошло
Конец отчёта

===================================DOWNLOAD========================================
Satan Jokers - 1983 - Les Fils Du Metal.rar - Народная ссылка

_________________
Image
Image


Top
 Profile  
 
 
PostPosted: 04 Oct 2009 
Хиппей (support team)
User avatar
Joined: 30 Jul 2007
Posts: 108205
Lоcаtion: Киев (Kyiv, UA)
Age: 45
Name: Andrey
Merci :thanx:

зы. Струйка трушная :true:

_________________


Top
 Profile E-mail  
 
 
PostPosted: 04 Oct 2009 
Thrasher
User avatar
Joined: 07 Oct 2007
Posts: 2756
Lоcаtion: Russia, Moscow
Age: 34
Name: Drunk & Evil
:true:

_________________
ВОДКА, БАБЫ И БЛЮЗ / 40° till death... :bodun:
One time we saw some hookers, but when we got closer, we realised it was Mötley Crüe. ©


Top
 Profile  
 
 
PostPosted: 04 Oct 2009 
Труъ
User avatar
Joined: 14 Jul 2009
Posts: 158
Lоcаtion: Hell Is Here
Age: 48
Name: Adriano
Thank You !! :thanx:


Top
 Profile E-mail  
 
 
PostPosted: 28 Mar 2016 
5cm
User avatar
Joined: 28 Mar 2013
Posts: 66
Age: 28
Name: Erik
PLEASE FRIEND CAN YOU SHARE A NEW LINK


Top
 Profile E-mail  
 
Display posts from previous:  Sort by  
Post new topic Reply to topic  [ 5 posts ] 

All times are UTC + 3 hours


Who is online

Users browsing this forum: No registered users and 2 guests


You cannot post new topics in this forum
You cannot reply to topics in this forum
You cannot edit your posts in this forum
You cannot delete your posts in this forum
You cannot post attachments in this forum

Search for:
Яндекс.Метрика
Powered by phpBB © 2000, 2002, 2005, 2007 phpBB Group