\m/ 80's metal \m/

Информационно-аналитический форум "80 см пыли" (In Search We Trust) "У нас никто никуда не спешит"
Железнодорожная биржа - RailAgent
It is currently 23 Jul 2018

All times are UTC + 3 hours

Spoiler
Chat - temporary registration for foreign users (please leave your application here)







Post new topic Reply to topic  [ 4 posts ] 
Author Message
 
PostPosted: 28 Sep 2009 
Thrasher
User avatar
Joined: 07 Oct 2007
Posts: 2755
Lоcаtion: Russia, Moscow
Age: 34
Name: Drunk & Evil
Savatage - 1985 - Power Of The Night [EAC-FLAC-LOG]
Genre:Heavy/Power Metal
Country:USA
Size:317 Mb

Image
log
Exact Audio Copy V0.99 prebeta 4 from 23. January 2008

EAC extraction logfile from 27. September 2009, 23:52

Savatage / Power Of The Night

Used drive : ASUS DRW-1608P Adapter: 0 ID: 0

Read mode : Secure
Utilize accurate stream : Yes
Defeat audio cache : Yes
Make use of C2 pointers : No

Read offset correction : 48
Overread into Lead-In and Lead-Out : No
Fill up missing offset samples with silence : Yes
Delete leading and trailing silent blocks : No
Null samples used in CRC calculations : No
Used interface : Installed external ASPI interface

Used output format : Internal WAV Routines
Sample format : 44.100 Hz; 16 Bit; Stereo


TOC of the extracted CD

Track | Start | Length | Start sector | End sector
---------------------------------------------------------
1 | 0:00.00 | 5:14.29 | 0 | 23578
2 | 5:14.29 | 4:27.18 | 23579 | 43621
3 | 9:41.47 | 4:02.74 | 43622 | 61845
4 | 13:44.46 | 3:36.41 | 61846 | 78086
5 | 17:21.12 | 2:14.70 | 78087 | 88206
6 | 19:36.07 | 3:59.37 | 88207 | 106168
7 | 23:35.44 | 4:30.71 | 106169 | 126489
8 | 28:06.40 | 3:21.36 | 126490 | 141600
9 | 31:28.01 | 3:09.47 | 141601 | 155822
10 | 34:37.48 | 4:15.55 | 155823 | 175002
11 | 38:53.28 | 4:49.70 | 175003 | 196747
12 | 43:43.23 | 3:02.41 | 196748 | 210438


Range status and errors

Selected range

Filename C:\My Music\ZAKAZ\Varathron - Walpurgisnacht\Savatage - Power Of The Night\Savatage - Power Of The Night.wav

Peak level 98.8 %
Range quality 100.0 %
Copy CRC ACED3927
Copy OK

No errors occurred


AccurateRip summary

Track 1 accurately ripped (confidence 7) [D67B37F7]
Track 2 accurately ripped (confidence 7) [847C9607]
Track 3 accurately ripped (confidence 7) [FAED8F6E]
Track 4 accurately ripped (confidence 7) [14953F3A]
Track 5 accurately ripped (confidence 7) [E9D97461]
Track 6 accurately ripped (confidence 7) [F0BEE8BD]
Track 7 accurately ripped (confidence 7) [69A157A1]
Track 8 accurately ripped (confidence 7) [721B3C20]
Track 9 accurately ripped (confidence 7) [A9FF5238]
Track 10 accurately ripped (confidence 7) [D3D1F487]
Track 11 accurately ripped (confidence 6) [120B420D]
Track 12 accurately ripped (confidence 6) [568F5971]

All tracks accurately ripped

End of status report

cue
REM GENRE Rock
REM DATE 2002
REM DISCID A90AF50C
REM COMMENT "ExactAudioCopy v0.99pb4"
PERFORMER "Savatage"
TITLE "Power Of The Night"
FILE "Savatage - Power Of The Night.flac" WAVE
TRACK 01 AUDIO
TITLE "Power Of The Night"
PERFORMER "Savatage"
ISRC DEA450200240
INDEX 01 00:00:00
TRACK 02 AUDIO
TITLE "Unusual"
PERFORMER "Savatage"
ISRC DEA450200250
INDEX 01 05:14:29
TRACK 03 AUDIO
TITLE "Warriors"
PERFORMER "Savatage"
ISRC DEA450200260
INDEX 00 09:40:62
INDEX 01 09:41:47
TRACK 04 AUDIO
TITLE "Necrophilia"
PERFORMER "Savatage"
ISRC DEA450200270
INDEX 00 13:44:05
INDEX 01 13:44:46
TRACK 05 AUDIO
TITLE "Washed Out"
PERFORMER "Savatage"
ISRC DEA450200280
INDEX 01 17:21:12
TRACK 06 AUDIO
TITLE "Hard For Love"
PERFORMER "Savatage"
ISRC DEA450200290
INDEX 01 19:36:07
TRACK 07 AUDIO
TITLE "Fountain Of Youth"
PERFORMER "Savatage"
ISRC DEA450200300
INDEX 01 23:35:44
TRACK 08 AUDIO
TITLE "Skull Session"
PERFORMER "Savatage"
ISRC DEA450200310
INDEX 01 28:06:40
TRACK 09 AUDIO
TITLE "Stuck On You"
PERFORMER "Savatage"
ISRC DEA450200320
INDEX 01 31:28:01
TRACK 10 AUDIO
TITLE "In The Dream"
PERFORMER "Savatage"
ISRC DEA450200330
INDEX 01 34:37:48
TRACK 11 AUDIO
TITLE "Power Of The Night (Live) - Bonus"
PERFORMER "Savatage"
ISRC DEA450200340
INDEX 01 38:53:28
TRACK 12 AUDIO
TITLE "Sirens (Live) - Bonus"
PERFORMER "Savatage"
ISRC DEA450200350
INDEX 01 43:43:23

Переиздание 2002 года. В представление думаю не нуждается. Огромнейщая кружка пива отправляется к Hellcat502, за отзывчивость и нереально быстрое рипанье ЦД.

Line-up:
Jon Oliva - Vocals, Keyboards
Criss Oliva - Guitar
Keith Collins - Bass
Steve Wacholz - Drums


Tracklist:
1.Power of the Night
2.Unusual
3.Warriors
4.Necrophilia
5.Washed Out
6.Hard for Love
7.Fountain of Youth
8.Skull Session
9.Stuck on You
10.In the Dream
11.Power Of The Night (live)
12.Siren (live)

TPT: 46:45

mega

_________________
ВОДКА, БАБЫ И БЛЮЗ / 40° till death... :bodun:
One time we saw some hookers, but when we got closer, we realised it was Mötley Crüe. ©


Top
 Profile  
 
 
PostPosted: 28 Sep 2009 
Хиппей (support team)
User avatar
Joined: 30 Jul 2007
Posts: 105211
Lоcаtion: Киев (Kyiv, UA)
Age: 45
Name: Andrey
Спасибо Славегу и Кирюхе :true:

_________________


Top
 Profile E-mail  
 
 
PostPosted: 28 Sep 2009 
труъ антисионист
User avatar
Joined: 01 Aug 2007
Posts: 4541
Lоcаtion: Откуда и большинство из нас
Age: 37
Name: Дядя Вова
Кир, может ты у СлавеГа лося Mucky Pup попросишь, а то он не откликается на мои просьбы.

_________________
Image
Image


Top
 Profile  
 
 
PostPosted: 28 Sep 2009 
Thrasher
User avatar
Joined: 07 Oct 2007
Posts: 2755
Lоcаtion: Russia, Moscow
Age: 34
Name: Drunk & Evil
Glot wrote:
Кир, может ты у СлавеГа лося Mucky Pup попросишь, а то он не откликается на мои просьбы.


а ты позвони ему...

_________________
ВОДКА, БАБЫ И БЛЮЗ / 40° till death... :bodun:
One time we saw some hookers, but when we got closer, we realised it was Mötley Crüe. ©


Top
 Profile  
 
Display posts from previous:  Sort by  
Post new topic Reply to topic  [ 4 posts ] 

All times are UTC + 3 hours


Who is online

Users browsing this forum: No registered users and 1 guest


You cannot post new topics in this forum
You cannot reply to topics in this forum
You cannot edit your posts in this forum
You cannot delete your posts in this forum
You cannot post attachments in this forum

Search for:
Яндекс.Метрика
cron
Powered by phpBB © 2000, 2002, 2005, 2007 phpBB Group