\m/ 80's metal \m/

Информационно-аналитический форум "80 см пыли" (In Search We Trust) "У нас никто никуда не спешит"
Me For You - http://me-4u.com
It is currently 22 Nov 2018

All times are UTC + 3 hours

Spoiler
Chat - temporary registration for foreign users (please leave your application here)







Post new topic Reply to topic  [ 72 posts ]  Go to page Previous  1, 2, 3, 4  Next
Author Message
 
PostPosted: 04 Nov 2013 
Почётный металлург
User avatar
Joined: 15 Sep 2007
Posts: 4357
Lоcаtion: Хабаровск
Age: 58
Name: чуть выше
http://forum.darksage.ru/forum/80-7335-1?linZjk

здесь походу английская версия.

_________________
Коль будешь людей ты ослами честить,
тебе человеком меж них не прослыть!
(Саади, персидский поэт, 13в.)


Top
 Profile  
 
 
PostPosted: 04 Nov 2013 
Трешер
User avatar
Joined: 25 Feb 2011
Posts: 1062
Lоcаtion: Харьков
Age: 42
Name: Aleksandr
спасибо! :true:


Top
 Profile E-mail  
 
 
PostPosted: 05 Nov 2013 
Хиппей (support team)
User avatar
Joined: 30 Jul 2007
Posts: 108264
Lоcаtion: Киев (Kyiv, UA)
Age: 45
Name: Andrey
Sortilege - 1984 - Metamorphose [Remastered 1997] [ape] - French Version

ImageImageImage

mirror: Narod l M-Cloud

Хы, и у Оксаны версия на французском и Серёгин рип :pardon:

log
Exact Audio Copy V0.99 prebeta 4 from 23. January 2008

EAC extraction logfile from 12. September 2009, 16:27

Sortilиge / Mйtamorphose

Used drive : PIONEER DVD-RW DVR-115D Adapter: 0 ID: 0

Read mode : Secure
Utilize accurate stream : Yes
Defeat audio cache : Yes
Make use of C2 pointers : No

Read offset correction : 48
Overread into Lead-In and Lead-Out : No
Fill up missing offset samples with silence : Yes
Delete leading and trailing silent blocks : No
Null samples used in CRC calculations : Yes
Used interface : Installed external ASPI interface

Used output format : Internal WAV Routines
Sample format : 44.100 Hz; 16 Bit; Stereo


TOC of the extracted CD

Track | Start | Length | Start sector | End sector
---------------------------------------------------------
1 | 0:00.32 | 2:36.08 | 32 | 11739
2 | 2:36.40 | 4:51.00 | 11740 | 33564
3 | 7:27.40 | 5:33.67 | 33565 | 58606
4 | 13:01.32 | 2:47.38 | 58607 | 71169
5 | 15:48.70 | 2:24.32 | 71170 | 82001
6 | 18:13.27 | 2:17.48 | 82002 | 92324
7 | 20:31.00 | 5:29.55 | 92325 | 117054
8 | 26:00.55 | 3:56.32 | 117055 | 134786
9 | 29:57.12 | 4:42.58 | 134787 | 155994
10 | 34:39.70 | 4:50.40 | 155995 | 177784
11 | 39:30.35 | 2:46.10 | 177785 | 190244
12 | 42:16.45 | 2:19.05 | 190245 | 200674
13 | 44:35.50 | 3:54.35 | 200675 | 218259
14 | 48:30.10 | 4:13.10 | 218260 | 237244


Range status and errors

Selected range

Filename D:\Sortilege\1984 - Metamorphose [Remastered 1997]\Sortilиge - Mйtamorphose.wav

Peak level 100.0 %
Range quality 99.9 %
Copy CRC C107F973
Copy OK

No errors occurred

End of status report

cue
REM GENRE "Heavy Metal"
REM DATE 1997
REM DISCID D00C5B0E
REM COMMENT "ExactAudioCopy v0.99pb4"
PERFORMER "Sortilиge"
TITLE "Mйtamorphose"
FILE "Sortilиge - Mйtamorphose.wav" WAVE
TRACK 01 AUDIO
TITLE "D'ailleurs"
PERFORMER "Sortilиge"
INDEX 00 00:00:00
INDEX 01 00:00:32
TRACK 02 AUDIO
TITLE "Majestй"
PERFORMER "Sortilиge"
INDEX 00 02:34:40
INDEX 01 02:36:40
TRACK 03 AUDIO
TITLE "Hymne а la Mort"
PERFORMER "Sortilиge"
INDEX 00 07:25:22
INDEX 01 07:27:40
TRACK 04 AUDIO
TITLE "Lйgende"
PERFORMER "Sortilиge"
INDEX 00 12:59:35
INDEX 01 13:01:32
TRACK 05 AUDIO
TITLE "Nuit des Limbes"
PERFORMER "Sortilиge"
INDEX 00 15:46:72
INDEX 01 15:48:70
TRACK 06 AUDIO
TITLE "Civilisation Perdue"
PERFORMER "Sortilиge"
INDEX 00 18:11:47
INDEX 01 18:13:27
TRACK 07 AUDIO
TITLE "Dйlire d'un Fou"
PERFORMER "Sortilиge"
INDEX 00 20:29:17
INDEX 01 20:31:00
TRACK 08 AUDIO
TITLE "Cyclope de L'Etang"
PERFORMER "Sortilиge"
INDEX 00 25:58:27
INDEX 01 26:00:55
TRACK 09 AUDIO
TITLE "Mйtamorphose"
PERFORMER "Sortilиge"
INDEX 00 29:55:42
INDEX 01 29:57:12
TRACK 10 AUDIO
TITLE "Majesty"
PERFORMER "Sortilиge"
INDEX 00 34:38:30
INDEX 01 34:39:70
TRACK 11 AUDIO
TITLE "Legend"
PERFORMER "Sortilиge"
INDEX 00 39:28:07
INDEX 01 39:30:35
TRACK 12 AUDIO
TITLE "Lost Civilization"
PERFORMER "Sortilиge"
INDEX 00 42:15:03
INDEX 01 42:16:45
TRACK 13 AUDIO
TITLE "Cyclops Of The Lake"
PERFORMER "Sortilиge"
INDEX 00 44:33:25
INDEX 01 44:35:50
TRACK 14 AUDIO
TITLE "Metamorphosis"
PERFORMER "Sortilиge"
INDEX 00 48:28:12
INDEX 01 48:30:10

_________________


Top
 Profile E-mail  
 
 
PostPosted: 05 Nov 2013 
Почётный металлург
User avatar
Joined: 15 Sep 2007
Posts: 4357
Lоcаtion: Хабаровск
Age: 58
Name: чуть выше
Sergey wrote:
http://forum.darksage.ru/forum/80-7335-1?linZjk

здесь походу английская версия.


мдя.. там такая же, французская.......

_________________
Коль будешь людей ты ослами честить,
тебе человеком меж них не прослыть!
(Саади, персидский поэт, 13в.)


Top
 Profile  
 
 
PostPosted: 05 Nov 2013 
Трешер
User avatar
Joined: 25 Feb 2011
Posts: 1062
Lоcаtion: Харьков
Age: 42
Name: Aleksandr
Блин а нужна то английская :(


Top
 Profile E-mail  
 
 
PostPosted: 05 Nov 2013 
Хиппей (support team)
User avatar
Joined: 30 Jul 2007
Posts: 108264
Lоcаtion: Киев (Kyiv, UA)
Age: 45
Name: Andrey
Дак можно во время пения лирику на английском зачитывать :dance: Караоке, есть такое понятие :umnik:

_________________


Top
 Profile E-mail  
 
 
PostPosted: 05 Nov 2013 
Трешер
User avatar
Joined: 25 Feb 2011
Posts: 1062
Lоcаtion: Харьков
Age: 42
Name: Aleksandr
Не не не будем искать ! Мы же вроде бы никуда не спешим :pardon:


Top
 Profile E-mail  
 
 
PostPosted: 06 Nov 2013 
Хиппей (support team)
User avatar
Joined: 30 Jul 2007
Posts: 108264
Lоcаtion: Киев (Kyiv, UA)
Age: 45
Name: Andrey
Хм, а зачем и здесь http://rutracker.org/forum/viewtopic.php?t=4265566 пишут, что выложена английская версия? :starz:

Кстати, англоязычный альбом вообще на диске переиздавался?

_________________


Top
 Profile E-mail  
 
 
PostPosted: 06 Nov 2013 
Рарник и трушник
User avatar
Joined: 25 Dec 2009
Posts: 8424
Lоcаtion: Москва
Age: 53
Name: Виталий
Scatterbrain wrote:
Кстати, англоязычный альбом вообще на диске переиздавался?

Ага, Steamhammer Low или Mid Price Series. :umnik:


Top
 Profile  
 
 
PostPosted: 06 Nov 2013 
Генеральный thrasher
User avatar
Joined: 03 Oct 2008
Posts: 3510
Lоcаtion: Ханты-Мансийский АО
Age: 43
Name: Сергей
Хм, а зачем и здесь http://rutracker.org/forum/viewtopic.php?t=4265566 пишут, что выложена английская версия? :starz:

Кстати, англоязычный альбом вообще на диске переиздавался?


Это товарищ с форума все релизы на рутрэкер перекладывает,а даже оформляя раздачу,не глянул названия песен.Там лишь несколько бонусов на английском.И других в заблуждение вводит.Была мысль купить англоязычную версию,да так и не сложилось.


Top
 Profile  
 
 
PostPosted: 06 Nov 2013 
Рарник и трушник
User avatar
Joined: 25 Dec 2009
Posts: 8424
Lоcаtion: Москва
Age: 53
Name: Виталий
glloomerxe wrote:
Блин а нужна то английская :(

Ну есть цид от Steamhammer, если не найдется рип, придётся заливать. :benya: Найти бы тока на полках цид. :benya:
Я думал, ваще не проблема с этим альбомом. :umnik:


Top
 Profile  
 
 
PostPosted: 06 Nov 2013 
Почётный металлург
User avatar
Joined: 15 Sep 2007
Posts: 4357
Lоcаtion: Хабаровск
Age: 58
Name: чуть выше
thorbeorn wrote:
И других в заблуждение вводит.

На darksage.ru и трек-лист и по весу видно было, что это то что надо. Ан нет, оказалось всё банальной наепкой! :nunu: :str: :kuval: :diablo: :esel:

_________________
Коль будешь людей ты ослами честить,
тебе человеком меж них не прослыть!
(Саади, персидский поэт, 13в.)


Top
 Profile  
 
 
PostPosted: 06 Nov 2013 
Почётный металлург
User avatar
Joined: 15 Sep 2007
Posts: 4357
Lоcаtion: Хабаровск
Age: 58
Name: чуть выше
Vitaly65 wrote:
если не найдется рип, придётся заливать.

Выручай, Виталей! Мне аглицкий в сотню раз нужнее, потому как когда-то в середине 80-х имел этот дисочек :cry:

_________________
Коль будешь людей ты ослами честить,
тебе человеком меж них не прослыть!
(Саади, персидский поэт, 13в.)


Top
 Profile  
 
 
PostPosted: 06 Nov 2013 
Генеральный thrasher
User avatar
Joined: 03 Oct 2008
Posts: 3510
Lоcаtion: Ханты-Мансийский АО
Age: 43
Name: Сергей
Серёга,а куда ты его дел?


Top
 Profile  
 
 
PostPosted: 06 Nov 2013 
Рарник и трушник
User avatar
Joined: 25 Dec 2009
Posts: 8424
Lоcаtion: Москва
Age: 53
Name: Виталий
Sergey wrote:
Выручай, Виталей! Мне аглицкий в сотню раз нужнее, потому как когда-то в середине 80-х имел этот дисочек :cry:

А я оба Стимхамеровских Сортиледжа имел. :benya: Э..э.. в смысле, на виниле имел, не в натуре. :benya:
ОК, сделаю рип сегодня вечерком. :umnik:


Top
 Profile  
 
 
PostPosted: 06 Nov 2013 
Трешер
User avatar
Joined: 25 Feb 2011
Posts: 1062
Lоcаtion: Харьков
Age: 42
Name: Aleksandr
:thanx: Спасибо Виталий !


Top
 Profile E-mail  
 
 
PostPosted: 06 Nov 2013 
Рарник и трушник
User avatar
Joined: 25 Dec 2009
Posts: 8424
Lоcаtion: Москва
Age: 53
Name: Виталий
http://yadi.sk/d/Bjeq2lNICFjpu
Sortilège
Métamorphose
(The English language version by Steamhammer (SH 0002))
Release date: 1984
Lable: Steamhammer SPV 04-7540 (CD-MID-PRICE SERIE)
1. Alien
2. Majesty
3. Death Hymn
4. Legend
5. Nuit des limbes
6. Lost Civilization
7. Delirium of a Madman
8. Cyclops of the Lake
9. Metamorphosis

log
Exact Audio Copy V1.0 beta 3 from 29. August 2011

EAC extraction logfile from 6. November 2013, 21:07

Sortilège / Métamorphose

Used drive : HL-DT-STBD-RE BE08LU20 Adapter: 1 ID: 0

Read mode : Secure
Utilize accurate stream : Yes
Defeat audio cache : Yes
Make use of C2 pointers : No

Read offset correction : 667
Overread into Lead-In and Lead-Out : No
Fill up missing offset samples with silence : Yes
Delete leading and trailing silent blocks : No
Null samples used in CRC calculations : Yes
Used interface : Native Win32 interface for Win NT & 2000

Used output format : User Defined Encoder
Selected bitrate : 768 kBit/s
Quality : High
Add ID3 tag : No
Command line compressor : C:\Program Files (x86)\Exact Audio Copy\FLAC\FLAC.EXE
Additional command line options : -6 -V -T "ARTIST=%artist%" -T "TITLE=%title%" -T "ALBUM=%albumtitle%" -T "DATE=%year%" -T "TRACKNUMBER=%tracknr%" -T "GENRE=%genre%" -T "COMMENT=%comment%" -T "BAND=%albuminterpret%" -T "ALBUMARTIST=%albuminterpret%" -T "COMPOSER=%composer%" %haslyrics%--tag-from-file=LYRICS="%lyricsfile%"%haslyrics% -T "DISCNUMBER=%cdnumber%" -T "TOTALDISCS=%totalcds%" -T "TOTALTRACKS=%numtracks%" %hascover%--picture="%coverfile%"%hascover% %source% -o %dest%


TOC of the extracted CD

Track | Start | Length | Start sector | End sector
---------------------------------------------------------
1 | 0:00.00 | 2:40.52 | 0 | 12051
2 | 2:40.52 | 4:55.00 | 12052 | 34176
3 | 7:35.52 | 5:36.00 | 34177 | 59376
4 | 13:11.52 | 2:50.00 | 59377 | 72126
5 | 16:01.52 | 2:29.00 | 72127 | 83301
6 | 18:30.52 | 2:25.00 | 83302 | 94176
7 | 20:55.52 | 5:32.00 | 94177 | 119076
8 | 26:27.52 | 4:01.00 | 119077 | 137151
9 | 30:28.52 | 4:13.53 | 137152 | 156179


Range status and errors

Selected range

Filename D:\MUSIC_METAL\SORTILEGE-84-Metamorphose\Sortilège - Métamorphose.wav

Peak level 88.0 %
Extraction speed 1.7 X
Range quality 100.0 %
Copy CRC 5D4725D7
Copy OK

No errors occurred


AccurateRip summary

Track 1 accurately ripped (confidence 1) [EBCC4CAC] (AR v1)
Track 2 accurately ripped (confidence 1) [660C887E] (AR v1)
Track 3 accurately ripped (confidence 1) [F5DC0BF0] (AR v1)
Track 4 accurately ripped (confidence 1) [9EF25B7E] (AR v1)
Track 5 accurately ripped (confidence 1) [7D24440D] (AR v1)
Track 6 accurately ripped (confidence 1) [77C875E0] (AR v1)
Track 7 accurately ripped (confidence 1) [B556BD21] (AR v1)
Track 8 accurately ripped (confidence 1) [D9095832] (AR v1)
Track 9 accurately ripped (confidence 1) [76A53709] (AR v1)

All tracks accurately ripped

End of status report

==== Log checksum A372FE5869324805728A62880C16D8A9AA08782446B47FAAB5562958F6C46790 ====


Top
 Profile  
 
 
PostPosted: 06 Nov 2013 
Хиппей (support team)
User avatar
Joined: 30 Jul 2007
Posts: 108264
Lоcаtion: Киев (Kyiv, UA)
Age: 45
Name: Andrey
:thanx:

mirror: Narod l M-Cloud

_________________


Top
 Profile E-mail  
 
 
PostPosted: 06 Nov 2013 
Почётный металлург
User avatar
Joined: 15 Sep 2007
Posts: 4357
Lоcаtion: Хабаровск
Age: 58
Name: чуть выше
Огромное благодарю! Вечерком займусь им.

thorbeorn wrote:
Серёга,а куда ты его дел?

А куды оно всё подевалось?.. Помнить бы... Помню, как достался. Товарищ (R.I.P.) привозил с Горбухи вместе с Trust IV тоже на аглицком, и с ними Tarzen '85-й еще был и Pink Floyd 'Ummagumma"/ И все это добро он мне как в нагрузку к заказанным Дипам и Джудасу 84ым сбагрил! Влетел я тогда на бабосы... Но не пожалел.

_________________
Коль будешь людей ты ослами честить,
тебе человеком меж них не прослыть!
(Саади, персидский поэт, 13в.)


Top
 Profile  
 
 
PostPosted: 06 Nov 2013 
Трешер
User avatar
Joined: 25 Feb 2011
Posts: 1062
Lоcаtion: Харьков
Age: 42
Name: Aleksandr
:thanx: забираю !


Top
 Profile E-mail  
 
Display posts from previous:  Sort by  
Post new topic Reply to topic  [ 72 posts ]  Go to page Previous  1, 2, 3, 4  Next

All times are UTC + 3 hours


Who is online

Users browsing this forum: No registered users and 3 guests


You cannot post new topics in this forum
You cannot reply to topics in this forum
You cannot edit your posts in this forum
You cannot delete your posts in this forum
You cannot post attachments in this forum

Search for:
Яндекс.Метрика
Powered by phpBB © 2000, 2002, 2005, 2007 phpBB Group