\m/ 80's metal \m/

Информационно-аналитический форум "80 см пыли" (In Search We Trust) "У нас никто никуда не спешит"
Me For You - http://me-4u.com
It is currently 23 Sep 2018

All times are UTC + 3 hours

Spoiler
Chat - temporary registration for foreign users (please leave your application here)







Post new topic Reply to topic  [ 3 posts ] 
Author Message
 
PostPosted: 10 Sep 2009 
Old Time Rock`n`Roll
User avatar
Joined: 23 Jun 2008
Posts: 3354
Lоcаtion: г.Ульяновск
Age: 40
Name: Константин
Sargant Fury – Little Fish (1993)

Image

Year:1993
Style: Hard`n`Heavy
Country: Germany
Format: APE + log + cue + booklet & mp3-320
Size: 360 Mb + 38 Mb

Tracklist
01. Out (3:38)
02. New Direction (3:58)
03. No. 7 (4:07)
04. Little Fish (3:48)
05. Eagle (4:56)
06. T.T.A. (3:48)
07. Goodbye (3:38)
08. Change (4:04)
09. Eternal Champion (4:32)
10. Wrong Place, Wrong Time (5:02)
11. Tomorrow (5:03)

TPT – 46:38

Line-Up
Andrew Mcdermott Vocals
Bauke de Groot Bass
Heiko Heike Drums
Kai Steffen Guitar
Olaf Grosser Guitar

Album Credits:
Produced: Charlie Bauerfeind/Sargant Fury
Engineered: Charlie Bauerfeind

Spectres

Image

Log
Отчёт EAC об извлечении, выполненном 27. февраля 2009, 21:55 для диска:
SARGANT FURY / Little Fish

Дисковод: PIONEER DVD-RW DVR-212 Adapter: 1 ID: 0
Режим чтения: Достоверный (C2: нет, Точный поток: да, Отключение кэша: да)
Комбинированное смещение чтения/записи: 48
Способность читать области Lead-in и Lead-out : Нет

Выходной формат: C:\Program Files\Monkey's Audio\MAC.exe (Monkey's Audio (без потерь))
High Lossless Compression


Другие параметры:
Заполнение пропущенных сэмплов тишиной : Да
Удаление блоков с тишиной в начале и конце : Нет
Установленный внешний ASPI-интерфейс


Характеристики диапазона извлечения и сообщения об ошибках
Выбранный диапазон
Имя файла F:\Захар\SARGANT FURY\Little Fish 1993\wav\SARGANT FURY - Little Fish.wav

Пиковый уровень 100.0 %
Качество диапазона 100.0 %
CRC CF53CE72
Копирование... OK

Ошибок не произошло

Конец отчёта


Cue
REM GENRE Metal
REM DATE 1993
REM DISCID 960AEE0B
REM COMMENT "ExactAudioCopy v0.95b4"
PERFORMER "SARGANT FURY"
TITLE "Little Fish"
FILE "SARGANT FURY - Little Fish.wav" WAVE
TRACK 01 AUDIO
TITLE "Out"
PERFORMER "SARGANT FURY"
INDEX 01 00:00:00
TRACK 02 AUDIO
TITLE "New Direction"
PERFORMER "SARGANT FURY"
INDEX 01 03:39:00
TRACK 03 AUDIO
TITLE "No. 7"
PERFORMER "SARGANT FURY"
INDEX 00 07:36:35
INDEX 01 07:37:67
TRACK 04 AUDIO
TITLE "Little Fish"
PERFORMER "SARGANT FURY"
INDEX 00 11:44:07
INDEX 01 11:45:00
TRACK 05 AUDIO
TITLE "Eagle"
PERFORMER "SARGANT FURY"
INDEX 00 15:32:41
INDEX 01 15:33:25
TRACK 06 AUDIO
TITLE "T.T.A."
PERFORMER "SARGANT FURY"
INDEX 00 20:26:29
INDEX 01 20:29:27
TRACK 07 AUDIO
TITLE "Goodbye"
PERFORMER "SARGANT FURY"
INDEX 01 24:18:15
TRACK 08 AUDIO
TITLE "Change"
PERFORMER "SARGANT FURY"
INDEX 00 27:55:14
INDEX 01 27:56:25
TRACK 09 AUDIO
TITLE "Eternal Champion"
PERFORMER "SARGANT FURY"
INDEX 00 31:59:35
INDEX 01 32:00:35
TRACK 10 AUDIO
TITLE "Wrong Place - Wrong Time"
PERFORMER "SARGANT FURY"
INDEX 00 36:32:52
INDEX 01 36:33:27
TRACK 11 AUDIO
TITLE "Tomorrow"
PERFORMER "SARGANT FURY"
INDEX 01 41:36:00


APE
megaupload-ape

mp3-320
megaupload-mp3

оригинальный рип от Manstr


Top
 Profile  
 
 
PostPosted: 10 Sep 2009 
Прокъмитолист
User avatar
Joined: 12 Aug 2007
Posts: 6473
Lоcаtion: Санктъ-Петербуркъ
Age: 50
Name: Олекъ
Костя, спасибо! :thanx: ну и Манстру тоже, конечно - не успел бы я скачать все равно :pardon:

_________________
прокъметол - это музыко, от которово есть прок (ы)


Top
 Profile  
 
 
PostPosted: 11 Sep 2009 
Хиппей (support team)
User avatar
Joined: 30 Jul 2007
Posts: 106502
Lоcаtion: Киев (Kyiv, UA)
Age: 45
Name: Andrey
:thanx:

_________________


Top
 Profile E-mail  
 
Display posts from previous:  Sort by  
Post new topic Reply to topic  [ 3 posts ] 

All times are UTC + 3 hours


Who is online

Users browsing this forum: No registered users and 3 guests


You cannot post new topics in this forum
You cannot reply to topics in this forum
You cannot edit your posts in this forum
You cannot delete your posts in this forum
You cannot post attachments in this forum

Search for:
Яндекс.Метрика
Powered by phpBB © 2000, 2002, 2005, 2007 phpBB Group