\m/ 80's metal \m/

Информационно-аналитический форум "80 см пыли" (In Search We Trust) "У нас никто никуда не спешит"
Me For You - http://me-4u.com
It is currently 16 Nov 2018

All times are UTC + 3 hours

Spoiler
Chat - temporary registration for foreign users (please leave your application here)







Post new topic Reply to topic  [ 10 posts ] 
Author Message
 
PostPosted: 06 Sep 2009 
Old Time Rock`n`Roll
User avatar
Joined: 23 Jun 2008
Posts: 3363
Lоcаtion: г.Ульяновск
Age: 40
Name: Константин
Sargant Fury – Turn The Page (1995)

Image

Year:1995
Style: Melodic Hard`n`Heavy
Country: Germany
Format: FLAC (tracks) + log + cue & mp3-320
Size: 329 Mb/ 107 Mb

Tracklist
01. Turn The Page (4:19)
02. Best I Can (3:32)
03. Crack In The Mirror (5:13)
04. Time (5:05)
05. K.Y. Jelly (3:23)
06. No Other Way (4:00)
07. Maniac (4:10)
08. Without You (3:29)
09. Main Attraction (4:32)
10. Can't Get Enough (4:01)
11. Lucky Day (3:52)

Line-Up
Andrew Mcdermott Vocals
Carsten Rebentisch Bass
Heiko Heike Drums
Kai Steffen Guitar
Olaf Grosser Guitar

Album Credits:
Produced: Charlie Bauerfeind/Sascha Paeth
Engineered: Charlie Bauerfeind

TPT – 46:07

Лог
dBpoweramp Release 13.2 Digital Audio Extraction Log from Montag, 22. Juni 2009 11:01

Drive & Settings
----------------

Ripping with drive 'H: [TSSTcorp - DVD-ROM SH-D162C]', Drive offset: 6, Overread Lead-in/out: No
AccurateRip: Active, Using C2: No, Cache: None, FUA Cache Invalidate: No
Pass 1 Drive Speed: Max, Pass 2 Drive Speed: 12
Bad Sector Re-rip:: Drive Speed: Max, Maximum Re-reads: 34

Encoder: FLAC -compression-level-8

Extraction Log
--------------

Track 1: Ripped LBA 32 to 19655 (4:21) in 0:22. Filename: F:\Temp\Sargant Fury - Turn The Page [FLAC]\01 Turn The Page.flac
AccurateRip: Accurate (confidence 1) [Pass 1]
CRC32: 01A94760 AccurateRip CRC: E7CC6DCE [DiscID: 011-001359aa-00a70279-880ad00b-1]

Track 2: Ripped LBA 19655 to 35790 (3:35) in 0:20. Filename: F:\Temp\Sargant Fury - Turn The Page [FLAC]\02 Best I Can.flac
AccurateRip: Accurate (confidence 1) [Pass 1]
CRC32: F4AB60B7 AccurateRip CRC: 7A4907AB [DiscID: 011-001359aa-00a70279-880ad00b-2]

Track 3: Ripped LBA 35790 to 59475 (5:15) in 0:24. Filename: F:\Temp\Sargant Fury - Turn The Page [FLAC]\03 Crack In The Mirror.flac
AccurateRip: Accurate (confidence 1) [Pass 1]
CRC32: A65136CF AccurateRip CRC: B4A9BDBA [DiscID: 011-001359aa-00a70279-880ad00b-3]

Track 4: Ripped LBA 59475 to 82680 (5:09) in 0:25. Filename: F:\Temp\Sargant Fury - Turn The Page [FLAC]\04 Time.flac
AccurateRip: Accurate (confidence 1) [Pass 1]
CRC32: 532E6D0C AccurateRip CRC: A370424D [DiscID: 011-001359aa-00a70279-880ad00b-4]

Track 5: Ripped LBA 82680 to 98110 (3:25) in 0:19. Filename: F:\Temp\Sargant Fury - Turn The Page [FLAC]\05 K.Y. Jelly.flac
AccurateRip: Accurate (confidence 1) [Pass 1]
CRC32: AE3DE461 AccurateRip CRC: 580F4BB3 [DiscID: 011-001359aa-00a70279-880ad00b-5]

Track 6: Ripped LBA 98110 to 116350 (4:03) in 0:18. Filename: F:\Temp\Sargant Fury - Turn The Page [FLAC]\06 No Other Way.flac
AccurateRip: Accurate (confidence 1) [Pass 1]
CRC32: C457C848 AccurateRip CRC: C403F763 [DiscID: 011-001359aa-00a70279-880ad00b-6]

Track 7: Ripped LBA 116350 to 135292 (4:12) in 0:18. Filename: F:\Temp\Sargant Fury - Turn The Page [FLAC]\07 Maniac.flac
AccurateRip: Accurate (confidence 1) [Pass 1]
CRC32: 63B1E9F6 AccurateRip CRC: E35BB51A [DiscID: 011-001359aa-00a70279-880ad00b-7]

Track 8: Ripped LBA 135292 to 151207 (3:32) in 0:17. Filename: F:\Temp\Sargant Fury - Turn The Page [FLAC]\08 Without You.flac
AccurateRip: Accurate (confidence 1) [Pass 1]
CRC32: DABA2E64 AccurateRip CRC: 1D307492 [DiscID: 011-001359aa-00a70279-880ad00b-8]

Track 9: Ripped LBA 151207 to 171820 (4:34) in 0:18. Filename: F:\Temp\Sargant Fury - Turn The Page [FLAC]\09 Main Attraction.flac
AccurateRip: Accurate (confidence 1) [Pass 1]
CRC32: D1689155 AccurateRip CRC: E2445998 [DiscID: 011-001359aa-00a70279-880ad00b-9]

Track 10: Ripped LBA 171820 to 190100 (4:03) in 0:19. Filename: F:\Temp\Sargant Fury - Turn The Page [FLAC]\10 Can't Get Enough.flac
AccurateRip: Accurate (confidence 1) [Pass 1]
CRC32: 14E6B5F5 AccurateRip CRC: B0309F98 [DiscID: 011-001359aa-00a70279-880ad00b-10]

Track 11: Ripped LBA 190100 to 207627 (3:53) in 0:17. Filename: F:\Temp\Sargant Fury - Turn The Page [FLAC]\11 Lucky Day.flac
AccurateRip: Accurate (confidence 1) [Pass 1]
CRC32: 904FD486 AccurateRip CRC: 870A9D17 [DiscID: 011-001359aa-00a70279-880ad00b-11]

--------------

11 Tracks Ripped Accurately


Куй
REM GENRE "Hard Rock"
REM DATE 1995
REM DISCID 880AD00B
REM COMMENT "ExactAudioCopy v0.99pb1"
PERFORMER "Sargant Fury"
TITLE "Turn The Page"
FILE "01 Turn The Page.wav" WAVE
TRACK 01 AUDIO
TITLE "Turn The Page"
PERFORMER "Sargant Fury"
PREGAP 00:00:32
INDEX 01 00:00:00
TRACK 02 AUDIO
TITLE "Best I Can"
PERFORMER "Sargant Fury"
INDEX 00 04:19:68
FILE "02 Best I Can.wav" WAVE
INDEX 01 00:00:00
TRACK 03 AUDIO
TITLE "Crack In The Mirror"
PERFORMER "Sargant Fury"
INDEX 00 03:32:70
FILE "03 Crack In The Mirror.wav" WAVE
INDEX 01 00:00:00
TRACK 04 AUDIO
TITLE "Time"
PERFORMER "Sargant Fury"
INDEX 00 05:12:45
FILE "04 Time.wav" WAVE
INDEX 01 00:00:00
TRACK 05 AUDIO
TITLE "K.Y. Jelly"
PERFORMER "Sargant Fury"
INDEX 00 05:07:37
FILE "05 K.Y. Jelly.wav" WAVE
INDEX 01 00:00:00
TRACK 06 AUDIO
TITLE "No Other Way"
PERFORMER "Sargant Fury"
INDEX 00 03:23:05
FILE "06 No Other Way.wav" WAVE
INDEX 01 00:00:00
TRACK 07 AUDIO
TITLE "Maniac"
PERFORMER "Sargant Fury"
INDEX 00 04:01:07
FILE "07 Maniac.wav" WAVE
INDEX 01 00:00:00
TRACK 08 AUDIO
TITLE "Without You"
PERFORMER "Sargant Fury"
INDEX 00 04:11:35
FILE "08 Without You.wav" WAVE
INDEX 01 00:00:00
TRACK 09 AUDIO
TITLE "Main Attraction"
PERFORMER "Sargant Fury"
INDEX 00 03:30:43
FILE "09 Main Attraction.wav" WAVE
INDEX 01 00:00:00
TRACK 10 AUDIO
TITLE "Can't Get Enough"
PERFORMER "Sargant Fury"
INDEX 00 04:33:10
FILE "10 Can't Get Enough.wav" WAVE
INDEX 01 00:00:00
TRACK 11 AUDIO
TITLE "Lucky Day"
PERFORMER "Sargant Fury"
INDEX 00 04:01:07
FILE "11 Lucky Day.wav" WAVE
INDEX 01 00:00:00


Spectres

Image

FLAC
megaupload
narod

mp3-320
megaupload


Рип Dr.Jackyl, сканы скромные, фронт и бэк.


Top
 Profile  
 
 
PostPosted: 06 Sep 2009 
Хиппей (support team)
User avatar
Joined: 30 Jul 2007
Posts: 108037
Lоcаtion: Киев (Kyiv, UA)
Age: 45
Name: Andrey
Thanx bro :true:

_________________


Top
 Profile E-mail  
 
 
PostPosted: 06 Sep 2009 
А может смените мне статус?..
Joined: 03 Jul 2009
Posts: 800
Lоcаtion: Serbia
Name: Laki
Thanks !!


Top
 Profile E-mail  
 
 
PostPosted: 06 Sep 2009 
Old Time Rock`n`Roll
User avatar
Joined: 23 Jun 2008
Posts: 3363
Lоcаtion: г.Ульяновск
Age: 40
Name: Константин
Scatterbrain wrote:
Thanx bro :true:

:shok: какое чистое произношение и безо всякого акцента!
Явно чувствуется английская спец.школа :umnik:


Top
 Profile  
 
 
PostPosted: 06 Sep 2009 
Хиппей (support team)
User avatar
Joined: 30 Jul 2007
Posts: 108037
Lоcаtion: Киев (Kyiv, UA)
Age: 45
Name: Andrey
А шо робити :pardon:

_________________


Top
 Profile E-mail  
 
 
PostPosted: 07 Sep 2009 
Прокъмитолист
User avatar
Joined: 12 Aug 2007
Posts: 6504
Lоcаtion: Санктъ-Петербуркъ
Age: 51
Name: Олекъ
спасибо, Костя! :thanx:
а второй не будешь выкладывать? я в принципе и с торрента могу стянуть если что :oops:

_________________
прокъметол - это музыко, от которово есть прок (ы)


Top
 Profile  
 
 
PostPosted: 07 Sep 2009 
Old Time Rock`n`Roll
User avatar
Joined: 23 Jun 2008
Posts: 3363
Lоcаtion: г.Ульяновск
Age: 40
Name: Константин
ОК, можно и выложить, там рейтинг все-таки.
На неделе выложу.


Top
 Profile  
 
 
PostPosted: 23 Dec 2009 
хард н хэвщик (support team)
User avatar
Joined: 02 Jun 2008
Posts: 16880
Lоcаtion: Н.Новгород
Age: 31
Name: Артем
ух ты, а оказывается, все три диска переизданы в 2009:
SARGANT FURY Do You Remember: The Anthology (3 CD SET)


Top
 Profile  
 
 
PostPosted: 23 Dec 2009 
хард н хэвщик (support team)
User avatar
Joined: 02 Jun 2008
Posts: 16880
Lоcаtion: Н.Новгород
Age: 31
Name: Артем
oldrocker wrote:
narod
спасибо, приятный музон :thanx:


Top
 Profile  
 
 
PostPosted: 25 Dec 2009 
Я набрал 1000 сообщений!
Joined: 02 Aug 2007
Posts: 1328
Lоcаtion: пос. Удельная
Age: 41
Name: Стас
Пол-царства за сканы буклета! :pray:
А точнее за лириксы, если есть вдруг у кого в текстовом виде, чтоб не пришлось набивать со сканов буклета - то вообще было бы супер!


Top
 Profile  
 
Display posts from previous:  Sort by  
Post new topic Reply to topic  [ 10 posts ] 

All times are UTC + 3 hours


Who is online

Users browsing this forum: No registered users and 2 guests


You cannot post new topics in this forum
You cannot reply to topics in this forum
You cannot edit your posts in this forum
You cannot delete your posts in this forum
You cannot post attachments in this forum

Search for:
Яндекс.Метрика
Powered by phpBB © 2000, 2002, 2005, 2007 phpBB Group