\m/ 80's metal \m/

Информационно-аналитический форум "80 см пыли" (In Search We Trust) "У нас никто никуда не спешит"
Железнодорожная биржа - RailAgent
It is currently 22 Jul 2018

All times are UTC + 3 hours

Spoiler
Chat - temporary registration for foreign users (please leave your application here)







Post new topic Reply to topic  [ 8 posts ] 
Author Message
 
PostPosted: 02 Aug 2009 
Персональный статус
User avatar
Joined: 02 Feb 2009
Posts: 236
Lоcаtion: Тульская область
Age: 52
Name: Владимир
Image
Альбом: Have A Good Time
Год: 1989
Лейбл: New Renaissance Records
Стиль: Crossover / Thrash Metal
Страна: Canada
Формат: Image APE / LOG / CUE
Размер: 249 Mb

************************************************************************
Найдено на бескрайних просторах интернета.

Line Up:
Stephan Whitton — vocals
Martin Cyr — guitars
Simon Genest — bass
Daniel Clavet — drums

Tracks:
1. Free Violence 04:48
2. Dig 03:28
3. Buzz Fly 04:48
4. The Game I 02:16
5. 101 03:34
6. Go Team Go 00:35
7. E.T. 04:40
8. The Game II 02:28
9. Pimple Sprayer 04:03
10. Together To Make A World 02:30
11. Changes 03:48
12. Rock'N'Roll Forever 01:01

Total playing time 38:06

"Лог"
EAC extraction logfile from 13. October 2005, 20:04 for CD
Soothsayer / Have A Good Time

Used drive : PLEXTOR DVDR PX-716A Adapter: 4 ID: 0
Read mode : Secure with NO C2, accurate stream, disable cache
Read offset correction : 30
Overread into Lead-In and Lead-Out : No

Used output format : C:\Programmi\Monkey's Audio\MAC.exe (Monkey's Audio Lossless Encoder)
High Lossless Compression

Other options :
Fill up missing offset samples with silence : Yes
Delete leading and trailing silent blocks : No
Installed external ASPI interface


Range status and errors
Selected range
Filename F:\Metalmadness\SOOTHSAYER\Have a good time.wav

Peak level 89.9 %
Range quality 100.0 %
CRC E1DCD5B0
Copy OK

No errors occured

End of status report


cue
PERFORMER "Soothsayer"
TITLE "Have A Good Time"
FILE "Have a good time.ape" WAVE
TRACK 01 AUDIO
TITLE "Free Violence"
PERFORMER "Soothsayer"
INDEX 00 00:00:00
INDEX 01 00:00:02
TRACK 02 AUDIO
TITLE "Dig"
PERFORMER "Soothsayer"
INDEX 00 04:46:27
INDEX 01 04:48:50
TRACK 03 AUDIO
TITLE "Buzz Fly"
PERFORMER "Soothsayer"
INDEX 01 08:17:27
TRACK 04 AUDIO
TITLE "The Game"
PERFORMER "Soothsayer"
INDEX 00 13:03:28
INDEX 01 13:05:50
TRACK 05 AUDIO
TITLE "101"
PERFORMER "Soothsayer"
INDEX 00 15:19:54
INDEX 01 15:21:50
TRACK 06 AUDIO
TITLE "Go Team Go"
PERFORMER "Soothsayer"
INDEX 00 18:54:34
INDEX 01 18:55:62
TRACK 07 AUDIO
TITLE "E.T."
PERFORMER "Soothsayer"
INDEX 00 19:29:05
INDEX 01 19:30:72
TRACK 08 AUDIO
TITLE "The Game II"
PERFORMER "Soothsayer"
INDEX 00 24:09:68
INDEX 01 24:11:67
TRACK 09 AUDIO
TITLE "Pimle Sprayer"
PERFORMER "Soothsayer"
INDEX 00 26:37:23
INDEX 01 26:40:57
TRACK 10 AUDIO
TITLE "Together To Make A World"
PERFORMER "Soothsayer"
INDEX 00 30:43:02
INDEX 01 30:44:37
TRACK 11 AUDIO
TITLE "Changes"
PERFORMER "Soothsayer"
INDEX 00 33:13:06
INDEX 01 33:15:10
TRACK 12 AUDIO
TITLE "Rock'n'Roll Forever"
PERFORMER "Soothsayer"
INDEX 00 37:01:11
INDEX 01 37:03:15


===================================DOWNLOAD========================================
Mega

_________________
http://img254.imageshack.us/img254/1015 ... 743574.gif
http://img140.imageshack.us/img140/7192 ... arlogo.jpg


Top
 Profile  
 
 
PostPosted: 02 Aug 2009 
хард н хэвщик (support team)
User avatar
Joined: 02 Jun 2008
Posts: 16880
Lоcаtion: Н.Новгород
Age: 31
Name: Артем
crimson22 wrote:
Стиль: Trash Metal

подправить бы надо, буковки не хватает ;)


Top
 Profile  
 
 
PostPosted: 02 Aug 2009 
труъ антисионист
User avatar
Joined: 01 Aug 2007
Posts: 4541
Lоcаtion: Откуда и большинство из нас
Age: 37
Name: Дядя Вова
McKagan wrote:
crimson22 wrote:
Стиль: Trash Metal

подправить бы надо, буковки не хватает ;)

Усё поправил :true:

_________________
Image
Image


Top
 Profile  
 
 
PostPosted: 02 Aug 2009 
Персональный статус
User avatar
Joined: 02 Feb 2009
Posts: 236
Lоcаtion: Тульская область
Age: 52
Name: Владимир
McKagan wrote:
подправить бы надо, буковки не хватает ;)

Эти буквы такие заразины, так и норовят куда-нить смыться :crazy:

Glot wrote:
Усё поправил :true:

Спасибо, не углядел.

_________________
http://img254.imageshack.us/img254/1015 ... 743574.gif
http://img140.imageshack.us/img140/7192 ... arlogo.jpg


Top
 Profile  
 
 
PostPosted: 02 Aug 2009 
Хиппей (support team)
User avatar
Joined: 30 Jul 2007
Posts: 105197
Lоcаtion: Киев (Kyiv, UA)
Age: 45
Name: Andrey
crimson22 wrote:
Найдено на бескрайних просторах интернета

log wrote:
Filename F:\Metalmadness\SOOTHSAYER\Have a good time.wav

По ходу релиз от ММТ... :scratch:

Спасибо за лосика :thanx:

_________________


Top
 Profile E-mail  
 
 
PostPosted: 02 Aug 2009 
Работнечег
User avatar
Joined: 28 Aug 2007
Posts: 5387
Lоcаtion: г. Москва
Age: 29
Name: Дима
Спасибо!


Top
 Profile E-mail  
 
 
PostPosted: 08 Oct 2009 
Хиппей (support team)
User avatar
Joined: 30 Jul 2007
Posts: 105197
Lоcаtion: Киев (Kyiv, UA)
Age: 45
Name: Andrey
Альбом - отвал б0шки :true: :ura: :true:
Сверхскоростной кроссовер с некоторыми трэшэвыми заморочками и даже одним медляком :meloman:

_________________


Top
 Profile E-mail  
 
 
PostPosted: 31 Jul 2011 
ТрэшЭрос
User avatar
Joined: 18 Jul 2011
Posts: 2296
Lоcаtion: Гулькевичи
Age: 43
Name: Александр
Опосля "качели" - :meloman: шо нам кленовы хлопци слабают. Це :true: але :( ???
crimson22, в любом случае - тяжёлое металлическое :thanx:

_________________
Thrash no trash!!!


Top
 Profile E-mail  
 
Display posts from previous:  Sort by  
Post new topic Reply to topic  [ 8 posts ] 

All times are UTC + 3 hours


Who is online

Users browsing this forum: No registered users and 3 guests


You cannot post new topics in this forum
You cannot reply to topics in this forum
You cannot edit your posts in this forum
You cannot delete your posts in this forum
You cannot post attachments in this forum

Search for:
Яндекс.Метрика
Powered by phpBB © 2000, 2002, 2005, 2007 phpBB Group