\m/ 80's metal \m/

Информационно-аналитический форум "80 см пыли" (In Search We Trust) "У нас никто никуда не спешит"
Железнодорожная биржа - RailAgent
It is currently 22 Jul 2018

All times are UTC + 3 hours

Spoiler
Chat - temporary registration for foreign users (please leave your application here)







Post new topic Reply to topic  [ 10 posts ] 
Author Message
 
PostPosted: 23 May 2009 
Power Metal Maniac
User avatar
Joined: 09 Aug 2008
Posts: 6197
Lоcаtion: Москва
Age: 40
Name: Егор
Solitaire - Rising To The Challenge

Image

Жанр: Speed Metal
Год выпуска диска: 2002
Страна: Finland
Аудио кодек: APE
Тип рипа: image+.cue+scans
Продолжительность: 39:59
Трэклист:
1. The Crossfire 03:40
2. Listen To The Priest 03:27
3. Rising To The Challenge 03:44
4. Thunderhorse 02:42
5. Juggernaut 06:01
6. Eye Of The Needle 03:06
7. I'll Never Grow Up 02:48
8. Alcatraz 02:53
9. Escape From Badlam 02:48
10. A Slash In The Night 04:50

Этот альбом смело можно выдавать за релиз года так 1985-86, ибо финские металлеры нарезают самый что ни на есть олд-скульный Speed Metal в духе Vectom, Exciter, Agent Steel, Savage Grace. Чрезвычайно скоростной и бескомпромиссный материал, приятный для поклонников подобной музыки. Саунд тоже вполне 80-кий. Медленных композиций нет в принципе, только Juggernaut немного помедленнее, а вот Thunderhorse, пожалуй, самая скоростная. Соляки присутствуют, но они не слишком ярки и мелодичны, но вполне адекватны. Наиболее мелодичной композицией является Alcatraz, она же мне и больше всего понравилась. Вокал не такой пронзительный и высокий, как скажем у John Cyriis, а более хриплый, но отдельные вскрики наличествуют. Хороший, но совсем не оригинальный релиз, как раз для любителей ретро-скульного Метала.

"отчет EAC:"
Exact Audio Copy V0.99 prebeta 4 from 23. January 2008

EAC extraction logfile from 23. May 2009, 13:01

Solitaire / Rising To The Challenge

Used drive : TEAC DV-W516GB Adapter: 0 ID: 2

Read mode : Secure
Utilize accurate stream : Yes
Defeat audio cache : Yes
Make use of C2 pointers : No

Read offset correction : 12
Overread into Lead-In and Lead-Out : No
Fill up missing offset samples with silence : Yes
Delete leading and trailing silent blocks : No
Null samples used in CRC calculations : Yes
Used interface : Native Win32 interface for Win NT & 2000

Used output format : Internal WAV Routines
Sample format : 44.100 Hz; 16 Bit; Stereo

TOC of the extracted CD

Track | Start | Length | Start sector | End sector
---------------------------------------------------------
1 | 0:00.00 | 3:40.44 | 0 | 16543
2 | 3:40.44 | 3:26.61 | 16544 | 32054
3 | 7:07.30 | 3:44.43 | 32055 | 48897
4 | 10:51.73 | 2:41.53 | 48898 | 61025
5 | 13:33.51 | 6:01.21 | 61026 | 88121
6 | 19:34.72 | 3:05.39 | 88122 | 102035
7 | 22:40.36 | 2:47.60 | 102036 | 114620
8 | 25:28.21 | 2:53.49 | 114621 | 127644
9 | 28:21.70 | 2:48.00 | 127645 | 140244
10 | 31:09.70 | 4:49.74 | 140245 | 161993

Range status and errors

Selected range

Filename I:\torrents\Solitaire 2002 - Rising to the Challenge\Solitaire - Rising To The Challenge.wav

Peak level 100.0 %
Range quality 100.0 %
Copy CRC 712F6C48
Copy OK

No errors occurred

End of status report


народ , 263 Mb

_________________
Long Live Metal!


Top
 Profile  
 
 
PostPosted: 23 May 2009 
дядя Миша
User avatar
Joined: 17 Oct 2008
Posts: 3035
Lоcаtion: USSR
Age: 55
Name: Khy
Слушал с месяц назад. Такое припанкованое звучание. Та ещё спидуха , мне показалось ближе к Piledriver , хотя все элементы музыки названных выше команд присутствуют. Жаль у меня только один , и как назло именно этот альбом.


Top
 Profile  
 
 
PostPosted: 23 May 2009 
Хиппей (support team)
User avatar
Joined: 30 Jul 2007
Posts: 105206
Lоcаtion: Киев (Kyiv, UA)
Age: 45
Name: Andrey
Спасибо, забираю :dance:
mirror: MultiUp l Narod

_________________


Top
 Profile E-mail  
 
 
PostPosted: 25 Jun 2009 
Прокъмитолист
User avatar
Joined: 12 Aug 2007
Posts: 6421
Lоcаtion: Санктъ-Петербуркъ
Age: 50
Name: Олекъ
и я забрал :thanx:

_________________
прокъметол - это музыко, от которово есть прок (ы)


Top
 Profile  
 
 
PostPosted: 26 Jun 2009 
HAMMER
User avatar
Joined: 16 May 2009
Posts: 5331
Lоcаtion: Тверь
Age: 45
Name: Александр
:thanx:


Top
 Profile E-mail  
 
 
PostPosted: 31 Jan 2010 
А может смените мне статус?..
User avatar
Joined: 24 Dec 2008
Posts: 608
Age: 44
Name: Дмитрий
Спасибо! Совсем недавно "открыл для себя" эту группу. Понравилось. :meloman:


Top
 Profile  
 
 
PostPosted: 18 Apr 2010 
metallpaparazzy
User avatar
Joined: 20 Dec 2009
Posts: 674
Lоcаtion: Днепропетровск
Age: 43
Name: Геннадий
:thanx:
беру! Predatress, 2008 очень понравился. :true:


Top
 Profile E-mail  
 
 
PostPosted: 24 Apr 2010 
труъ антисионист
User avatar
Joined: 01 Aug 2007
Posts: 4541
Lоcаtion: Откуда и большинство из нас
Age: 37
Name: Дядя Вова
От меня тоже всякие спасибы :thanx:

_________________
Image
Image


Top
 Profile  
 
 
PostPosted: 05 Jul 2011 
Motörheadache
User avatar
Joined: 04 Feb 2010
Posts: 1294
Lоcаtion: Впереди- горы,позади-степи
Age: 45
Name: Александр
Как раз тот случай из разряда "ходил,ходил....пялился....заценить всё лень и впадлу.." :crazy:
Однако (скажем так случайно) стянул таки пару штук у почтенной Оксаны ,и жутко прикололся... :meloman:
Шо касаемо конкретно Rising To The Challenge ,то тут "всё как надо " : олдскульность,напор,приятное уложение на ухо, и всё такое.....
Вещица Juggernaut кстати навеяла мысли о разлюбимом Feel The Fire славных оверкиллофф..... :true: :true: :true:
Вобщем-спасибо !

_________________
Eine Nation, Ein Land, Eine Schnaps!

Наш священный долг:защищать Родину,и соблюдать правила личной гигиены....!


Top
 Profile E-mail  
 
 
PostPosted: 03 Aug 2011 
ТрэшЭрос
User avatar
Joined: 18 Jul 2011
Posts: 2296
Lоcаtion: Гулькевичи
Age: 43
Name: Александр
:thanx:

_________________
Thrash no trash!!!


Top
 Profile E-mail  
 
Display posts from previous:  Sort by  
Post new topic Reply to topic  [ 10 posts ] 

All times are UTC + 3 hours


Who is online

Users browsing this forum: No registered users and 2 guests


You cannot post new topics in this forum
You cannot reply to topics in this forum
You cannot edit your posts in this forum
You cannot delete your posts in this forum
You cannot post attachments in this forum

Search for:
Яндекс.Метрика
Powered by phpBB © 2000, 2002, 2005, 2007 phpBB Group