\m/ 80's metal \m/

Информационно-аналитический форум "80 см пыли" (In Search We Trust) "У нас никто никуда не спешит"
Me For You - http://me-4u.com
It is currently 23 Sep 2018

All times are UTC + 3 hours

Spoiler
Chat - temporary registration for foreign users (please leave your application here)







Post new topic Reply to topic  [ 3 posts ] 
Author Message
 
PostPosted: 12 May 2009 
труъ антисионист
User avatar
Joined: 01 Aug 2007
Posts: 4541
Lоcаtion: Откуда и большинство из нас
Age: 37
Name: Дядя Вова
Image
Группа: Shameless
Альбом: Famous 4 Madness
Год: 2007
Лейбл: Spice Records
Стиль: Glam Rock
Страна: Пиндосия
Формат: Ape + Log + Cue
Размер: 308 Mb

***********************************************************************************************

Line Up:

Alexx Michael Bass
Steve Summers Vocals
Stevie Rachelle Vocals
John Corabi Vocals
Jani Lane Backing Vocals
Phil Lewis Vocals
B.C. Guitar
Michael Thomas Guitar
Kari Kane Drums
T Burr Drums
Keri Kelli Guitar
Eric Singer Drums
Mike Warren Keyboards
Mike Fasano Drums



Tracks:
1. Crashdown
2. Famous 4 Madness
3. Shes Watchin U
4. Better Off Without U
5. We Wont Take It Anymore
6. No Regrets
7. Magical Misery
8. Web Junkie
9. Complications
10. Dirty Shirt
11. Party Tonight


Log
Exact Audio Copy V0.99 prebeta 4 from 23. January 2008

EAC extraction logfile from 10. March 2008, 13:35

Shameless / Famous 4 Madness

Used drive : TSSTcorpCD/DVDW SH-S182D Adapter: 0 ID: 0

Read mode : Secure
Utilize accurate stream : Yes
Defeat audio cache : Yes
Make use of C2 pointers : No

Read offset correction : 6
Overread into Lead-In and Lead-Out : No
Fill up missing offset samples with silence : Yes
Delete leading and trailing silent blocks : No
Null samples used in CRC calculations : No
Used interface : Installed external ASPI interface

Used output format : Internal WAV Routines
Sample format : 44.100 Hz; 16 Bit; Stereo


TOC of the extracted CD

Track | Start | Length | Start sector | End sector
---------------------------------------------------------
1 | 0:00.00 | 3:44.71 | 0 | 16870
2 | 3:44.71 | 3:28.69 | 16871 | 32539
3 | 7:13.65 | 2:50.02 | 32540 | 45291
4 | 10:03.67 | 4:05.42 | 45292 | 63708
5 | 14:09.34 | 4:20.10 | 63709 | 83218
6 | 18:29.44 | 3:06.49 | 83219 | 97217
7 | 21:36.18 | 4:59.46 | 97218 | 119688
8 | 26:35.64 | 3:10.14 | 119689 | 133952
9 | 29:46.03 | 4:00.10 | 133953 | 151962
10 | 33:46.13 | 4:14.55 | 151963 | 171067
11 | 38:00.68 | 3:54.10 | 171068 | 188627


Range status and errors

Selected range

Filename D:\Cd\To Share\Shameless - 2007 - Famous 4 Madness\Shameless - Famous 4 Madness.wav

Peak level 99.8 %
Range quality 99.9 %
Copy CRC 69169EDF
Copy OK

No errors occurred


AccurateRip summary

Track 1 not present in database
Track 2 not present in database
Track 3 not present in database
Track 4 not present in database
Track 5 not present in database
Track 6 not present in database
Track 7 not present in database
Track 8 not present in database
Track 9 not present in database
Track 10 not present in database
Track 11 not present in database

None of the tracks are present in the AccurateRip database

End of status report


===================================DOWNLOAD========================================
Народ Диск

_________________
Image
Image


Top
 Profile  
 
 
PostPosted: 13 May 2009 
А может смените мне статус?..
User avatar
Joined: 22 Nov 2008
Posts: 962
Lоcаtion: Schelcovo,Russia
Age: 46
Name: Сергей
БРАВО! :thanx:


Top
 Profile  
 
 
PostPosted: 09 Oct 2009 
Зарегился вот...
Joined: 09 Oct 2009
Posts: 1
Name: вадим
огромное спасибо, то что надо :meloman:


Top
 Profile E-mail  
 
Display posts from previous:  Sort by  
Post new topic Reply to topic  [ 3 posts ] 

All times are UTC + 3 hours


Who is online

Users browsing this forum: No registered users and 3 guests


You cannot post new topics in this forum
You cannot reply to topics in this forum
You cannot edit your posts in this forum
You cannot delete your posts in this forum
You cannot post attachments in this forum

Search for:
Яндекс.Метрика
cron
Powered by phpBB © 2000, 2002, 2005, 2007 phpBB Group