\m/ 80's metal \m/

Информационно-аналитический форум "80 см пыли" (In Search We Trust) "У нас никто никуда не спешит"
Me For You - http://me-4u.com
It is currently 15 Nov 2018

All times are UTC + 3 hours

Spoiler
Chat - temporary registration for foreign users (please leave your application here)







Post new topic Reply to topic  [ 1 post ] 
Author Message
 
PostPosted: 12 May 2009 
труъ антисионист
User avatar
Joined: 01 Aug 2007
Posts: 4541
Lоcаtion: Откуда и большинство из нас
Age: 37
Name: Дядя Вова
Image
Группа: Shameless
Альбом: Super Hardcore Show
Год: 2003
Лейбл: RSR
Стиль: Glam Rock
Страна: Пиндосия
Формат: Ape + Log + Cue
Размер: 567 Mb

***********************************************************************************************

Line Up:

Steve Sex Summers Vocals
Alexx Michael Bass
B.C. Guitar
Harry Bitchoff Drums (Live Tracks)
Mike Fasano Drums (Tracks 1-2)
Keri Kelli Guitar (Tracks 1-2)
Dean Ashe Guitar (Live Tracks)



Tracks:
1. Daydream Believer Cover: Monkees
2. Start Me Up Cover: Rolling Stones
3. Steal The Girlz
4. Shock The World
5. Don't Hesitate
6. Lonely Nite In Paradise
7. Toy Human
8. What's Goin On
9. U & I
10. I Want U To Want Me Cover: Cheap Trick
11. Queen 4 A Day
12. Rock N Roll All Nite Cover: Kiss
13. She's Not Coming Home Piano Version
14. She's Not Coming Home Acoustic Version


Log
Exact Audio Copy V0.99 prebeta 4 from 23. January 2008

EAC extraction logfile from 10. March 2008, 12:18

Shameless / Super Hardcore Show (live)

Used drive : TSSTcorpCD/DVDW SH-S182D Adapter: 0 ID: 0

Read mode : Secure
Utilize accurate stream : Yes
Defeat audio cache : Yes
Make use of C2 pointers : No

Read offset correction : 6
Overread into Lead-In and Lead-Out : No
Fill up missing offset samples with silence : Yes
Delete leading and trailing silent blocks : No
Null samples used in CRC calculations : No
Used interface : Installed external ASPI interface

Used output format : Internal WAV Routines
Sample format : 44.100 Hz; 16 Bit; Stereo


TOC of the extracted CD

Track | Start | Length | Start sector | End sector
---------------------------------------------------------
1 | 0:00.00 | 2:30.50 | 0 | 11299
2 | 2:30.50 | 2:54.50 | 11300 | 24399
3 | 5:25.25 | 3:42.45 | 24400 | 41094
4 | 9:07.70 | 3:34.00 | 41095 | 57144
5 | 12:41.70 | 3:26.00 | 57145 | 72594
6 | 16:07.70 | 3:17.45 | 72595 | 87414
7 | 19:25.40 | 3:39.45 | 87415 | 103884
8 | 23:05.10 | 5:11.65 | 103885 | 127274
9 | 28:17.00 | 3:32.00 | 127275 | 143174
10 | 31:49.00 | 3:38.00 | 143175 | 159524
11 | 35:27.00 | 5:33.70 | 159525 | 184569
12 | 41:00.70 | 6:23.43 | 184570 | 213337
13 | 47:24.38 | 8:39.72 | 213338 | 252334
14 | 58:36.35 | 17:17.31 | 263735 | 341540


Range status and errors

Selected range

Filename D:\Cd\To Share\Shameless - 2003 - Super Hardcore Show\Shameless - Super Hardcore Show (live).wav

Peak level 99.9 %
Range quality 99.9 %
Copy CRC 3BBCE257
Copy OK

No errors occurred


AccurateRip summary

Track 1 not present in database
Track 2 not present in database
Track 3 not present in database
Track 4 not present in database
Track 5 not present in database
Track 6 not present in database
Track 7 not present in database
Track 8 not present in database
Track 9 not present in database
Track 10 not present in database
Track 11 not present in database
Track 12 not present in database
Track 13 not present in database

None of the tracks are present in the AccurateRip database

End of status report


===================================DOWNLOAD========================================
Народ Диск

_________________
Image
Image


Top
 Profile  
 
Display posts from previous:  Sort by  
Post new topic Reply to topic  [ 1 post ] 

All times are UTC + 3 hours


Who is online

Users browsing this forum: No registered users and 3 guests


You cannot post new topics in this forum
You cannot reply to topics in this forum
You cannot edit your posts in this forum
You cannot delete your posts in this forum
You cannot post attachments in this forum

Search for:
Яндекс.Метрика
Powered by phpBB © 2000, 2002, 2005, 2007 phpBB Group