\m/ 80's metal \m/

Информационно-аналитический форум "80 см пыли" (In Search We Trust) "У нас никто никуда не спешит"
Me For You - http://me-4u.com
It is currently 20 Sep 2018

All times are UTC + 3 hours

Spoiler
Chat - temporary registration for foreign users (please leave your application here)







Post new topic Reply to topic  [ 1 post ] 
Author Message
 
PostPosted: 12 May 2009 
труъ антисионист
User avatar
Joined: 01 Aug 2007
Posts: 4541
Lоcаtion: Откуда и большинство из нас
Age: 37
Name: Дядя Вова
Image
Группа: Shameless
Альбом: Splashed
Год: 2002
Лейбл: RSR
Стиль: Glam Rock
Страна: Пиндосия
Формат: Ape + Log + Cue
Размер: 491 Mb

***********************************************************************************************

Line Up:

Steve Summers vocals
Stevie Rachelle vocals on tracks 6 and 11
Alexx Michael bass
Mike Fasano drums
Kari Kane drums on track 5
Keri Kelli guitars
Jan Sick keyboards



Tracks:
1. Don't Hesitate
2. Love Game
3. Goodbye 2 U
4. Toy Human
5. She's Not Comin' Home
6. U and I
7. Change Your World
8. Operator
9. Wild in the Night
10. Get-A-Way


Log
Exact Audio Copy V0.99 prebeta 4 from 23. January 2008

EAC extraction logfile from 10. March 2008, 13:49

Shameless / Splashed

Used drive : TSSTcorpCD/DVDW SH-S182D Adapter: 0 ID: 0

Read mode : Secure
Utilize accurate stream : Yes
Defeat audio cache : Yes
Make use of C2 pointers : No

Read offset correction : 6
Overread into Lead-In and Lead-Out : No
Fill up missing offset samples with silence : Yes
Delete leading and trailing silent blocks : No
Null samples used in CRC calculations : No
Used interface : Installed external ASPI interface

Used output format : Internal WAV Routines
Sample format : 44.100 Hz; 16 Bit; Stereo


TOC of the extracted CD

Track | Start | Length | Start sector | End sector
---------------------------------------------------------
1 | 0:00.00 | 3:37.51 | 0 | 16325
2 | 3:37.51 | 3:51.19 | 16326 | 33669
3 | 7:28.70 | 2:59.56 | 33670 | 47150
4 | 10:28.51 | 3:39.52 | 47151 | 63627
5 | 14:08.28 | 4:08.33 | 63628 | 82260
6 | 18:16.61 | 3:08.38 | 82261 | 96398
7 | 21:25.24 | 3:10.40 | 96399 | 110688
8 | 24:35.64 | 3:47.60 | 110689 | 127773
9 | 28:23.49 | 3:47.59 | 127774 | 144857
10 | 32:11.33 | 3:39.43 | 144858 | 161325
11 | 35:51.01 | 4:11.73 | 161326 | 180223
12 | 42:34.74 | 24:15.47 | 191624 | 300795


Range status and errors

Selected range

Filename D:\Cd\To Share\Shameless - 2002 - Splashed\Shameless - Splashed.wav

Peak level 100.0 %
Range quality 100.0 %
Copy CRC BDB40331
Copy OK

No errors occurred


AccurateRip summary

Track 1 not present in database
Track 2 not present in database
Track 3 not present in database
Track 4 not present in database
Track 5 not present in database
Track 6 not present in database
Track 7 not present in database
Track 8 not present in database
Track 9 not present in database
Track 10 not present in database
Track 11 not present in database

None of the tracks are present in the AccurateRip database

End of status report


===================================DOWNLOAD========================================
Народ Диск

_________________
Image
Image


Top
 Profile  
 
Display posts from previous:  Sort by  
Post new topic Reply to topic  [ 1 post ] 

All times are UTC + 3 hours


Who is online

Users browsing this forum: No registered users and 3 guests


You cannot post new topics in this forum
You cannot reply to topics in this forum
You cannot edit your posts in this forum
You cannot delete your posts in this forum
You cannot post attachments in this forum

Search for:
Яндекс.Метрика
Powered by phpBB © 2000, 2002, 2005, 2007 phpBB Group