\m/ 80's metal \m/

Информационно-аналитический форум "80 см пыли" (In Search We Trust) "У нас никто никуда не спешит"
Me For You - http://me-4u.com
It is currently 24 Sep 2018

All times are UTC + 3 hours

Spoiler
Chat - temporary registration for foreign users (please leave your application here)







Post new topic Reply to topic  [ 1 post ] 
Author Message
 
PostPosted: 12 May 2009 
труъ антисионист
User avatar
Joined: 01 Aug 2007
Posts: 4541
Lоcаtion: Откуда и большинство из нас
Age: 37
Name: Дядя Вова
Image
Группа: Shameless
Альбом: Queen 4 a Day
Год: 2000
Лейбл: MTM Music
Стиль: Glam Rock
Страна: Пиндосия
Формат: Ape + Log + Cue
Размер: 535 Mb

***********************************************************************************************

Line Up:

Alexx Skunk Michael bass
Steve Summers vocals
Stevie Rachelle vocals
Kari Kane drums
B.C guitar
Keri Kelli guitar
Keith Alan drums
Danny Wagner keyboards
Jani Lane backing vocals
Brian Tichy drums
Ziggy Stardust guitar
Steve Riley drums
Tracii Guns guitar
Eric Singer drums, backing vocals
Teddy Zig Zag Andreas backing vocals, keyboards
Bruce Kulick guitar
Gilby Clarke backing vocals



Tracks:
1. Shock the World
2. Queen 4 a Day
3. You Cant Stop Me
4. Far Away
5. American Man
6. Nonstop City
7. Lonley Nite in Paradise
8. I Don't Think I Love U
9. What U Want Is What You Get
10. Steal the Girlz
11. I'm So Good
12. A Place Where Love Can't Go


Log
Exact Audio Copy V0.99 prebeta 4 from 23. January 2008

EAC extraction logfile from 10. March 2008, 14:18

Shameless / Queen 4 A Day

Used drive : TSSTcorpCD/DVDW SH-S182D Adapter: 0 ID: 0

Read mode : Secure
Utilize accurate stream : Yes
Defeat audio cache : Yes
Make use of C2 pointers : No

Read offset correction : 6
Overread into Lead-In and Lead-Out : No
Fill up missing offset samples with silence : Yes
Delete leading and trailing silent blocks : No
Null samples used in CRC calculations : No
Used interface : Installed external ASPI interface

Used output format : Internal WAV Routines
Sample format : 44.100 Hz; 16 Bit; Stereo


TOC of the extracted CD

Track | Start | Length | Start sector | End sector
---------------------------------------------------------
1 | 0:00.00 | 3:47.35 | 0 | 17059
2 | 3:47.35 | 4:33.14 | 17060 | 37548
3 | 8:20.49 | 3:19.60 | 37549 | 52533
4 | 11:40.34 | 4:44.20 | 52534 | 73853
5 | 16:24.54 | 3:45.43 | 73854 | 90771
6 | 20:10.22 | 3:55.39 | 90772 | 108435
7 | 24:05.61 | 3:14.74 | 108436 | 123059
8 | 27:20.60 | 5:05.40 | 123060 | 145974
9 | 32:26.25 | 4:43.42 | 145975 | 167241
10 | 37:09.67 | 3:51.70 | 167242 | 184636
11 | 41:01.62 | 4:29.55 | 184637 | 204866
12 | 45:31.42 | 4:38.10 | 204867 | 225726
13 | 52:41.52 | 18:13.24 | 237127 | 319125


Range status and errors

Selected range

Filename D:\Cd\To Share\Shameless - 2000 - Queen 4 A Day\Shameless - Queen 4 A Day.wav

Peak level 100.0 %
Range quality 100.0 %
Copy CRC 4217E2DE
Copy OK

No errors occurred


AccurateRip summary

Track 1 not present in database
Track 2 not present in database
Track 3 not present in database
Track 4 not present in database
Track 5 not present in database
Track 6 not present in database
Track 7 not present in database
Track 8 not present in database
Track 9 not present in database
Track 10 not present in database
Track 11 not present in database
Track 12 not present in database

None of the tracks are present in the AccurateRip database

End of status report


===================================DOWNLOAD========================================
Народ Диск

_________________
Image
Image


Top
 Profile  
 
Display posts from previous:  Sort by  
Post new topic Reply to topic  [ 1 post ] 

All times are UTC + 3 hours


Who is online

Users browsing this forum: No registered users and 3 guests


You cannot post new topics in this forum
You cannot reply to topics in this forum
You cannot edit your posts in this forum
You cannot delete your posts in this forum
You cannot post attachments in this forum

Search for:
Яндекс.Метрика
Powered by phpBB © 2000, 2002, 2005, 2007 phpBB Group