\m/ 80's metal \m/

Информационно-аналитический форум "80 см пыли" (In Search We Trust) "У нас никто никуда не спешит"
Железнодорожная биржа - RailAgent
It is currently 22 Jul 2018

All times are UTC + 3 hours

Spoiler
Chat - temporary registration for foreign users (please leave your application here)







Post new topic Reply to topic  [ 11 posts ] 
Author Message
 
PostPosted: 12 May 2009 
труъ антисионист
User avatar
Joined: 01 Aug 2007
Posts: 4541
Lоcаtion: Откуда и большинство из нас
Age: 37
Name: Дядя Вова
Image
Группа: Shameless
Альбом: Backstreet Anthems
Год: 1999
Лейбл: Red Skunk Recordz
Стиль: Glam Rock
Страна: Пиндосия
Формат: Ape + Log + Cue
Размер: 279 Mb

***********************************************************************************************

Line Up:

Steve Summers vocals
Eddie Robison vocals
Stevie Rachelle vocals
Tracii Guns guitars
Bruce Kulick guitars
Kristy Majors guitars
B.C. guitars
Alexx Michael bass
Eric Skodis drums
Robert Sweet drums
Brian Tichy drums
Eric Singer drums
Teddy Andreadis piano



Tracks:
1. Backstreet Action 5:00
2. Strange Dayz 4:04
3. Just 1 Nite 4:51
4. You're The One (I Want) 4:18
5. Flaming Youth 2:54 Cover: KISS
6. Talk To Me 4:21
7. Realize 5:52
8. What's Goin' On 3:48
9. Hard Dayz Nite 2:41 Cover: The Beatles
10. All The Girls, But U 4:21


Total Running Time: 42:10

Log
Exact Audio Copy V0.99 prebeta 4 from 23. January 2008

EAC extraction logfile from 10. March 2008, 13:18

Shameless / Backstreet Anthems

Used drive : TSSTcorpCD/DVDW SH-S182D Adapter: 0 ID: 0

Read mode : Secure
Utilize accurate stream : Yes
Defeat audio cache : Yes
Make use of C2 pointers : No

Read offset correction : 6
Overread into Lead-In and Lead-Out : No
Fill up missing offset samples with silence : Yes
Delete leading and trailing silent blocks : No
Null samples used in CRC calculations : No
Used interface : Installed external ASPI interface

Used output format : Internal WAV Routines
Sample format : 44.100 Hz; 16 Bit; Stereo


TOC of the extracted CD

Track | Start | Length | Start sector | End sector
---------------------------------------------------------
1 | 0:00.00 | 5:00.27 | 0 | 22526
2 | 5:00.27 | 4:04.31 | 22527 | 40857
3 | 9:04.58 | 4:51.21 | 40858 | 62703
4 | 13:56.04 | 4:18.27 | 62704 | 82080
5 | 18:14.31 | 2:54.09 | 82081 | 95139
6 | 21:08.40 | 4:21.46 | 95140 | 114760
7 | 25:30.11 | 5:52.43 | 114761 | 141203
8 | 31:22.54 | 3:48.14 | 141204 | 158317
9 | 35:10.68 | 2:41.39 | 158318 | 170431
10 | 37:52.32 | 4:21.22 | 170432 | 190028


Range status and errors

Selected range

Filename D:\Cd\To Share\Shameless - 1999 - Backstreet Anthems\Shameless - Shameless.wav

Peak level 100.0 %
Range quality 100.0 %
Copy CRC DCD957D9
Copy OK

No errors occurred


AccurateRip summary

Track 1 not present in database
Track 2 not present in database
Track 3 not present in database
Track 4 not present in database
Track 5 not present in database
Track 6 not present in database
Track 7 not present in database
Track 8 not present in database
Track 9 not present in database
Track 10 not present in database

None of the tracks are present in the AccurateRip database

End of status report


===================================DOWNLOAD========================================
Народ Диск

_________________
Image
Image


Top
 Profile  
 
 
PostPosted: 13 May 2009 
Alive Again
User avatar
Joined: 17 Dec 2008
Posts: 4579
Lоcаtion: Курск Воронеж Оскол
Age: 43
Name: Дмитрий
Спасибо!
А какой у них самый интересный альбом, что-нибудь наиболее мощное и интересное? Я о них слышал, но не слушал, по сэмплам на myspase так и не понял.


Top
 Profile E-mail  
 
 
PostPosted: 13 May 2009 
труъ антисионист
User avatar
Joined: 01 Aug 2007
Posts: 4541
Lоcаtion: Откуда и большинство из нас
Age: 37
Name: Дядя Вова
dr_rockter wrote:
Спасибо!
А какой у них самый интересный альбом, что-нибудь наиболее мощное и интересное? Я о них слышал, но не слушал, по сэмплам на myspase так и не понял.

Да чёрт его знает, мне вообще ничерта не понравилось, не люблю я накрашенных мужиков :nuu:

_________________
Image
Image


Top
 Profile  
 
 
PostPosted: 14 May 2009 
Хиппей (support team)
User avatar
Joined: 30 Jul 2007
Posts: 105199
Lоcаtion: Киев (Kyiv, UA)
Age: 45
Name: Andrey
Glot wrote:
мне вообще ничерта не понравилось

:nunu: Давайте весь шлак на форум :ura:

_________________


Top
 Profile E-mail  
 
 
PostPosted: 14 May 2009 
труъ антисионист
User avatar
Joined: 01 Aug 2007
Posts: 4541
Lоcаtion: Откуда и большинство из нас
Age: 37
Name: Дядя Вова
Scatterbrain
Тут просто достаточное количество людей любит глэм, вот я и решил, что бы добро не пропадало, залить сюда. :crazy: Всётаки редкость.

_________________
Image
Image


Top
 Profile  
 
 
PostPosted: 14 May 2009 
Труъ
User avatar
Joined: 12 Aug 2008
Posts: 160
Lоcаtion: Днепропетровск
Age: 53
Name: Геннадий
Спасибо,мне понравилось.Я люблю такой музон. :meloman: :dance:

_________________
ROCK N ROLL — не болезнь, а лекарство.Принимаем ежедневно.


Top
 Profile E-mail  
 
 
PostPosted: 14 May 2009 
Хиппей (support team)
User avatar
Joined: 30 Jul 2007
Posts: 105199
Lоcаtion: Киев (Kyiv, UA)
Age: 45
Name: Andrey
Glot wrote:
что бы добро не пропадало

Спасибо, мне понра :true:

_________________


Top
 Profile E-mail  
 
 
PostPosted: 14 May 2009 
труъ антисионист
User avatar
Joined: 01 Aug 2007
Posts: 4541
Lоcаtion: Откуда и большинство из нас
Age: 37
Name: Дядя Вова
Scatterbrain wrote:
:nunu: Давайте весь шлак на форум :ura:


Scatterbrain wrote:
Спасибо, мне понра :true:

:vic:

_________________
Image
Image


Top
 Profile  
 
 
PostPosted: 15 May 2009 
Пионэръ
User avatar
Joined: 27 Jun 2008
Posts: 47
Lоcаtion: Калуга
Age: 29
Name: Александр
Самые лучшие у них - 2002 и 2007!

_________________
"I take drugs and you should too" © Murderdolls


Top
 Profile  
 
 
PostPosted: 15 May 2009 
А может смените мне статус?..
User avatar
Joined: 22 Nov 2008
Posts: 962
Lоcаtion: Schelcovo,Russia
Age: 46
Name: Сергей
Привет Darrell !!!


Top
 Profile  
 
 
PostPosted: 15 May 2009 
Alive Again
User avatar
Joined: 17 Dec 2008
Posts: 4579
Lоcаtion: Курск Воронеж Оскол
Age: 43
Name: Дмитрий
Darrell wrote:
Самые лучшие у них - 2002 и 2007!

Привет, Саш! Спасибо за совет, попробую "Splashed".


Top
 Profile E-mail  
 
Display posts from previous:  Sort by  
Post new topic Reply to topic  [ 11 posts ] 

All times are UTC + 3 hours


Who is online

Users browsing this forum: No registered users and 1 guest


You cannot post new topics in this forum
You cannot reply to topics in this forum
You cannot edit your posts in this forum
You cannot delete your posts in this forum
You cannot post attachments in this forum

Search for:
Яндекс.Метрика
Powered by phpBB © 2000, 2002, 2005, 2007 phpBB Group