\m/ 80's metal \m/

Информационно-аналитический форум "80 см пыли" (In Search We Trust) "У нас никто никуда не спешит"
Me For You - http://me-4u.com
It is currently 17 Nov 2018

All times are UTC + 3 hours

Spoiler
Chat - temporary registration for foreign users (please leave your application here)







Post new topic Reply to topic  [ 46 posts ]  Go to page Previous  1, 2, 3  Next
Author Message
 
PostPosted: 07 Dec 2015 
Небесный болтер
User avatar
Joined: 28 Apr 2008
Posts: 2599
Lоcаtion: Верхние Шипки
Age: 35
Name: К. Кастальский
Scatterbrain wrote:
Явно подписались на солидном лэйбле?

да, на мажорном


Top
 Profile  
 
 
PostPosted: 07 Dec 2015 
Хиппей (support team)
User avatar
Joined: 30 Jul 2007
Posts: 108071
Lоcаtion: Киев (Kyiv, UA)
Age: 45
Name: Andrey
Ну, влагалище группе, тогда, генитальное :(

_________________


Top
 Profile E-mail  
 
 
PostPosted: 07 Dec 2015 
Небесный болтер
User avatar
Joined: 28 Apr 2008
Posts: 2599
Lоcаtion: Верхние Шипки
Age: 35
Name: К. Кастальский
Scatterbrain wrote:
Ну, влагалище группе, тогда, генитальное

Ну тебе же понра альбом 2012-го, а он уже на модном лейбле был.
Просто у альбома 2014-го какой-то слишком жирный саунд да и материал менее запоминающийся


Top
 Profile  
 
 
PostPosted: 07 Dec 2015 
Небесный болтер
User avatar
Joined: 28 Apr 2008
Posts: 2599
Lоcаtion: Верхние Шипки
Age: 35
Name: К. Кастальский


Top
 Profile  
 
 
PostPosted: 07 Dec 2015 
Хиппей (support team)
User avatar
Joined: 30 Jul 2007
Posts: 108071
Lоcаtion: Киев (Kyiv, UA)
Age: 45
Name: Andrey
Skybolter wrote:
Ну тебе же понра альбом 2012-го, а он уже на модном лейбле был.

Да? Ну, мож как раз там альбом свой издали уже готовый, а до этого ещё не успели заборзеть. Хотя, вариантов снижения качества музыку (творчества) и повышения качества саунда могут быть разными.
Многие группы 1-2 альбома хороших записывают сразу, а затем заходят в тупик.
По альбому 12 года ещё хотелось бы сказать, что группа использует методу Ирон Майдена - запоминающиеся соляки, плюс хороший, с экзерцисами, вокал.
Ведь сами посудите - много ли действительно хитовых песен вы сейчас вспомните у группы Iron Maiden?
"Число зверя", "2 минуты до полуночи", "Зло, творимое человеком", "Боязнь темноты". Ещё?
Раннинг Фри, Трупер и Ворчайлд это немного из иной "оперы". А так всё у них стандартно и уклон делается на лирику да на соляки запоминающиеся и риффы.
На альбоме 12 года у Страйкера (не могу не поматериться на счёт название группы и издевательски потыкать пальцем за скудость в выборе :nunu: ) у группы минимум два стадионных хита - Lethal Force, Fight For Your Life и, конечно же, Can't Stop The Rush.
Как там дальше у них будет. Послушаю скоро.
Skybolter wrote:
Просто у альбома 2014-го какой-то слишком жирный саунд да и материал менее запоминающийся

Ну вот, не повлиял ли (не настоял ли) не этом и лэйбл?.. :vic: Я пока про саунд =)

_________________


Top
 Profile E-mail  
 
 
PostPosted: 07 Dec 2015 
Хиппей (support team)
User avatar
Joined: 30 Jul 2007
Posts: 108071
Lоcаtion: Киев (Kyiv, UA)
Age: 45
Name: Andrey
Striker - 2014 - City Of Gold [flac]

Image

mirror: iFolder l Narod l M-Cloud

Да, саунд весьма мощный стал и современный. Зато скоростей много :true: :true: :true:
Пока только первые трэки начал слушать...
И снова очень много "восточных риффов" в гитарном саунде, о чём раньше забыл упомянуть. И "славянских" тоже.
Эх, хорошо орёт и играют, но с саундом трохи переборщили звукачи. На ухи немного давит такая плотность... :sp:

Аххааха, а вот бонусы порадовали очень, особенно "Ту минатс т'у миднайт" :crazy: :meloman:

В общем, альбом более-менее понравился, но... по саунду это совсем иная группа :vic:
Пусть исправляютя.

7-/10

scans
Image

Image

Image

Image

Image

Image

Image

Image

Image

Image

Image

Image

log
Exact Audio Copy V1.0 beta 3 from 29. August 2011

EAC extraction logfile from 12. September 2014, 22:05

Striker / City Of Gold

Used drive : HL-DT-STDVDRAM GU40N Adapter: 0 ID: 1

Read mode : Secure
Utilize accurate stream : Yes
Defeat audio cache : Yes
Make use of C2 pointers : No

Read offset correction : 103
Overread into Lead-In and Lead-Out : No
Fill up missing offset samples with silence : Yes
Delete leading and trailing silent blocks : No
Null samples used in CRC calculations : Yes
Used interface : Installed external ASPI interface

Used output format : User Defined Encoder
Selected bitrate : 128 kBit/s
Quality : High
Add ID3 tag : No
Command line compressor : C:\Program Files (x86)\AudioConverter\AudioConverter.exe
Additional command line options : -V -8 -T "Date=%year%" -T "Genre=%genre%" %source%


TOC of the extracted CD

Track | Start | Length | Start sector | End sector
---------------------------------------------------------
1 | 0:00.00 | 3:00.37 | 0 | 13536
2 | 3:00.37 | 4:50.54 | 13537 | 35340
3 | 7:51.16 | 4:25.58 | 35341 | 55273
4 | 12:16.74 | 3:58.31 | 55274 | 73154
5 | 16:15.30 | 4:22.60 | 73155 | 92864
6 | 20:38.15 | 3:25.22 | 92865 | 108261
7 | 24:03.37 | 3:20.34 | 108262 | 123295
8 | 27:23.71 | 3:39.45 | 123296 | 139765
9 | 31:03.41 | 4:17.71 | 139766 | 159111
10 | 35:21.37 | 3:28.12 | 159112 | 174723
11 | 38:49.49 | 4:58.30 | 174724 | 197103
12 | 43:48.04 | 6:01.22 | 197104 | 224200
13 | 49:49.26 | 3:56.08 | 224201 | 241908
14 | 53:45.34 | 3:57.43 | 241909 | 259726
15 | 57:43.02 | 5:17.38 | 259727 | 283539


Range status and errors

Selected range

Filename C:\Users\workutagin\Desktop\Striker - City of Gold 2014\Striker - City Of Gold.wav

Peak level 100.0 %
Extraction speed 2.1 X
Range quality 100.0 %
Test CRC A027EDDB
Copy CRC A027EDDB
Copy OK

No errors occurred


AccurateRip summary

Track 1 not present in database
Track 2 not present in database
Track 3 not present in database
Track 4 not present in database
Track 5 not present in database
Track 6 not present in database
Track 7 not present in database
Track 8 not present in database
Track 9 not present in database
Track 10 not present in database
Track 11 not present in database
Track 12 not present in database
Track 13 not present in database
Track 14 not present in database
Track 15 not present in database

None of the tracks are present in the AccurateRip database

End of status report

==== Log checksum 0843A62E0F789B793DC20B7D53DE66713D0E9D1DCDA822280508DA063D7541F8 ====

cue
REM GENRE Instrumental
REM DATE 2014
REM DISCID CE0EC40F
REM COMMENT "ExactAudioCopy v1.0b3"
PERFORMER "Striker"
TITLE "City Of Gold"
FILE "Striker - City Of Gold.flac" WAVE
TRACK 01 AUDIO
TITLE "Underground"
PERFORMER "Striker"
INDEX 01 00:00:00
TRACK 02 AUDIO
TITLE "City Of Gold"
PERFORMER "Striker"
INDEX 01 03:00:37
TRACK 03 AUDIO
TITLE "Start Again"
PERFORMER "Striker"
INDEX 01 07:51:16
TRACK 04 AUDIO
TITLE "Bad Decisions"
PERFORMER "Striker"
INDEX 01 12:16:74
TRACK 05 AUDIO
TITLE "Crossroads"
PERFORMER "Striker"
INDEX 01 16:15:30
TRACK 06 AUDIO
TITLE "All For One"
PERFORMER "Striker"
INDEX 01 20:38:15
TRACK 07 AUDIO
TITLE "Mind Control"
PERFORMER "Striker"
INDEX 01 24:03:37
TRACK 08 AUDIO
TITLE "Second Attack"
PERFORMER "Striker"
INDEX 01 27:23:71
TRACK 09 AUDIO
TITLE "All I Want"
PERFORMER "Striker"
INDEX 01 31:03:41
TRACK 10 AUDIO
TITLE "Rise Up"
PERFORMER "Striker"
INDEX 01 35:21:37
TRACK 11 AUDIO
TITLE "Taken By Time"
PERFORMER "Striker"
INDEX 01 38:49:49
TRACK 12 AUDIO
TITLE "Two Minutes To Midnight (Bonus track)"
PERFORMER "Striker"
INDEX 01 43:48:04
TRACK 13 AUDIO
TITLE "Watching You (Bonus track)"
PERFORMER "Striker"
INDEX 01 49:49:26
TRACK 14 AUDIO
TITLE "Roll With The Punches (Bonus track)"
PERFORMER "Striker"
INDEX 01 53:45:34
TRACK 15 AUDIO
TITLE "Fuck Volcanoes (Bonus track)"
PERFORMER "Striker"
INDEX 01 57:43:02

_________________


Top
 Profile E-mail  
 
 
PostPosted: 07 Dec 2015 
Partisanen - nicht kapitulieren!!
User avatar
Joined: 25 Dec 2011
Posts: 6755
Lоcаtion: партизанские леса
Age: 46
Name: Владимир
Scatterbrain wrote:
Ведь сами посудите - много ли действительно хитовых песен вы сейчас вспомните у группы Iron Maiden?

таки и те ПолДивановы :oops:

_________________
One more beer and Heavy Metal and I'm just fine!
старовер, куле... слово "блин" - до сих пор через Ъ говорю


Top
 Profile E-mail  
 
 
PostPosted: 27 Jan 2016 
Partisanen - nicht kapitulieren!!
User avatar
Joined: 25 Dec 2011
Posts: 6755
Lоcаtion: партизанские леса
Age: 46
Name: Владимир


_________________
One more beer and Heavy Metal and I'm just fine!
старовер, куле... слово "блин" - до сих пор через Ъ говорю


Top
 Profile E-mail  
 
 
PostPosted: 03 Feb 2016 
Alive Again
User avatar
Joined: 17 Dec 2008
Posts: 4740
Lоcаtion: Курск Воронеж Оскол
Age: 44
Name: Дмитрий
Quote:
Striker

Интересно, давно скачал, пора бы и послушать :crazy:


Top
 Profile E-mail  
 
 
PostPosted: 03 Feb 2016 
Хиппей (support team)
User avatar
Joined: 30 Jul 2007
Posts: 108071
Lоcаtion: Киев (Kyiv, UA)
Age: 45
Name: Andrey
Не понравилась песенка чего-то... ("сегодня ты играешь джаз, а завтра родинку продашь...") :scratch:
Альбом пока слушать новый некогда.

_________________


Top
 Profile E-mail  
 
 
PostPosted: 03 Feb 2016 
Я набрал 1000 сообщений!
Joined: 09 Jul 2008
Posts: 2459
Age: 45
Name: Сергей
так себе альбом... сделан решительный шаг в сторону попсятинки, а за гадость типа too late вообще убивать надо...


Top
 Profile  
 
 
PostPosted: 03 Feb 2016 
Небесный болтер
User avatar
Joined: 28 Apr 2008
Posts: 2599
Lоcаtion: Верхние Шипки
Age: 35
Name: К. Кастальский
Судя по всему, ребят турнули с лейбла :crazy: Либо бабло не приносят, либо самими не понравилась политика лейбла :crazy:


Top
 Profile  
 
 
PostPosted: 03 Feb 2016 
Я набрал 1000 сообщений!
Joined: 21 Nov 2009
Posts: 1399
Lоcаtion: praga
Age: 48
Name: Сергей
В Прагу приесжают вместе с Primal Fear.


Top
 Profile E-mail  
 
 
PostPosted: 03 Feb 2016 
Хиппей (support team)
User avatar
Joined: 30 Jul 2007
Posts: 108071
Lоcаtion: Киев (Kyiv, UA)
Age: 45
Name: Andrey
В Прагу приесжают вместе с Primal Fear.

О тоже на ПМЖ? :kro:

_________________


Top
 Profile E-mail  
 
 
PostPosted: 04 Feb 2016 
Я набрал 1000 сообщений!
Joined: 09 Jul 2008
Posts: 2459
Age: 45
Name: Сергей
ну они сделали свой выбор, что тут ещё обсуждать то? нет больше интересной группы, печаль


Top
 Profile  
 
 
PostPosted: 04 Feb 2016 
Я набрал 1000 сообщений!
Joined: 21 Nov 2009
Posts: 1399
Lоcаtion: praga
Age: 48
Name: Сергей
В Прагу приесжают вместе с Primal Fear.

О тоже на ПМЖ? :kro:

На ЖМП!


Top
 Profile E-mail  
 
 
PostPosted: 04 Feb 2016 
Я набрал 1000 сообщений!
User avatar
Joined: 11 Feb 2009
Posts: 1833
Lоcаtion: Крым,Ялта
Age: 45
Name: Валера
О, а сегодня в Одноклассниках, в группе "Metal Forever" как раз запостили "эпический" клип Страйкера на песню, название которой было спиЖЖено у Джудас Прист, Fight for your life и повествующее о нелёгкой борьбе участника группы с какой-то бабой на тему "Кто кого перепьёт" под улюлюканье болельщиков с обеих сторон.
Муть редкостная.


Top
 Profile  
 
 
PostPosted: 04 Feb 2016 
Partisanen - nicht kapitulieren!!
User avatar
Joined: 25 Dec 2011
Posts: 6755
Lоcаtion: партизанские леса
Age: 46
Name: Владимир
у кого-то ещё было Fight for your life...

вспомнил - у МР в '86 годе :meloman:

_________________
One more beer and Heavy Metal and I'm just fine!
старовер, куле... слово "блин" - до сих пор через Ъ говорю


Top
 Profile E-mail  
 
 
PostPosted: 04 Feb 2016 
Partisanen - nicht kapitulieren!!
User avatar
Joined: 25 Dec 2011
Posts: 6755
Lоcаtion: партизанские леса
Age: 46
Name: Владимир
хм... и тут Прист )))

_________________
One more beer and Heavy Metal and I'm just fine!
старовер, куле... слово "блин" - до сих пор через Ъ говорю


Top
 Profile E-mail  
 
 
PostPosted: 04 Feb 2016 
Доктор энтомологии
User avatar
Joined: 22 Jan 2009
Posts: 9449
Lоcаtion: Даугавпилс
Age: 43
Name: Алексей
У многих групп есть такая песенка
http://www.metal-archives.com/search/ad ... nre=#songs


Top
 Profile  
 
Display posts from previous:  Sort by  
Post new topic Reply to topic  [ 46 posts ]  Go to page Previous  1, 2, 3  Next

All times are UTC + 3 hours


Who is online

Users browsing this forum: No registered users and 4 guests


You cannot post new topics in this forum
You cannot reply to topics in this forum
You cannot edit your posts in this forum
You cannot delete your posts in this forum
You cannot post attachments in this forum

Search for:
Яндекс.Метрика
Powered by phpBB © 2000, 2002, 2005, 2007 phpBB Group