\m/ 80's metal \m/

Информационно-аналитический форум "80 см пыли" (In Search We Trust) "У нас никто никуда не спешит"
Me For You - http://me-4u.com
It is currently 20 Nov 2018

All times are UTC + 3 hours

Spoiler
Chat - temporary registration for foreign users (please leave your application here)







Post new topic Reply to topic  [ 46 posts ]  Go to page 1, 2, 3  Next
Author Message
 
PostPosted: 06 Apr 2009 
Персональный статус
Joined: 08 Aug 2008
Posts: 211
Age: 52
Name: John
Striker - Road Warrior 2009 (EP)

Image

Bitrate: 320 / Size: 59.3 MB
Label: Iron Kodex Records
Genre: Speed Metal
Current Line-Up:
Dan Cleary - Vocals
Ian Sandercock - Guitar
Chris Segger - Guitar
Dave Arnold - Bass
Magnus Burdeniuk - Drums
Former/Past Member(s):
Tyson Travnik - Drums
Dave Grafton - Bass

Tracklist:

01 - Road Warrior
02 - Lord Of The Sword
03 - Fire
04 - Dark Heart Of The City
05 - The Keg That Crushed New York (Bonus Track)
06 - You'll Wish That You Were Never Born (Grim Reaper Cover)

Rapid
Narod
iFolder

No Pass!

John New


Top
 Profile  
 
 
PostPosted: 06 Apr 2009 
Персональный статус
User avatar
Joined: 27 Nov 2008
Posts: 429
Age: 29
Name: Сергей
Сингл видел. а что за проект и есть ли альбомы еще?(главное чтоб деректор неругал меня за флуд)


Top
 Profile  
 
 
PostPosted: 07 Apr 2009 
udo
User avatar
Joined: 01 Mar 2008
Posts: 2343
Lоcаtion: Краснодар
Age: 47
Name: РОМАН
Ragval0d wrote:
главное чтоб деректор неругал

ВОт гады , запугали котенка


Top
 Profile E-mail  
 
 
PostPosted: 07 Apr 2009 
Хиппей (support team)
User avatar
Joined: 30 Jul 2007
Posts: 108205
Lоcаtion: Киев (Kyiv, UA)
Age: 45
Name: Andrey
Ragval0d wrote:
деректор

http://metal-archives.com/band.php?id=3540276670


Top
 Profile E-mail  
 
 
PostPosted: 07 Apr 2009 
Персональный статус
User avatar
Joined: 27 Nov 2008
Posts: 429
Age: 29
Name: Сергей
Scatterbrain
Спасибо. А группа мне понравилась.


Top
 Profile  
 
 
PostPosted: 07 Apr 2009 
Thrasher
User avatar
Joined: 07 Oct 2007
Posts: 2756
Lоcаtion: Russia, Moscow
Age: 34
Name: Drunk & Evil
Нормуль :true:

_________________
ВОДКА, БАБЫ И БЛЮЗ / 40° till death... :bodun:
One time we saw some hookers, but when we got closer, we realised it was Mötley Crüe. ©


Top
 Profile  
 
 
PostPosted: 07 Apr 2009 
Персональный статус
User avatar
Joined: 23 Jan 2008
Posts: 339
Age: 44
Name: Олег
John New спасибо.

Сам материал действительно хорош, но только вот какой то не
запоминающийся. Ну на мой взгляд, это не тот альбом о котором
вспоминаешь, когда задаешь себе вопрос: а что бы его послушать.

Да и не спид это, там обычного хеви больше в разы.


Top
 Profile  
 
 
PostPosted: 15 Nov 2015 
Partisanen - nicht kapitulieren!!
User avatar
Joined: 25 Dec 2011
Posts: 6755
Lоcаtion: партизанские леса
Age: 46
Name: Владимир
песня с нового альбома, выходящего в феврале '16
https://soundcloud.com/strikermetal/too-late-1

_________________
One more beer and Heavy Metal and I'm just fine!
старовер, куле... слово "блин" - до сих пор через Ъ говорю


Top
 Profile E-mail  
 
 
PostPosted: 05 Dec 2015 
Partisanen - nicht kapitulieren!!
User avatar
Joined: 25 Dec 2011
Posts: 6755
Lоcаtion: партизанские леса
Age: 46
Name: Владимир

_________________
One more beer and Heavy Metal and I'm just fine!
старовер, куле... слово "блин" - до сих пор через Ъ говорю


Top
 Profile E-mail  
 
 
PostPosted: 07 Dec 2015 
Хиппей (support team)
User avatar
Joined: 30 Jul 2007
Posts: 108205
Lоcаtion: Киев (Kyiv, UA)
Age: 45
Name: Andrey
Striker - Eyes In The Night + Road Warrior (EP) [ape]

Image

1. Full Speed Or No Speed (3:09)
2. Eyes In The Night (4:13)
3. We Don't Play By The Rules (3:42)
4. Never Ending Nights (4:37)
5. The White Knight (3:55)
6. The Voice Of Rock (4:29)
7.Ice Cold (4:54)
8. Terrorizer (4:22)
9. Believe In Me (5:47)
10. Hang On (4:17)
11. Road Warrior (3:22)
12. Lord Of The Sword (4:59)
13. Fire (3:46)
14. Dark Heart Of The City (6:40)
15. The Keg That Crushed New York (3:57)

TPT: 65:21

mirror: iFolder l Narod l M-Cloud

Утянуто с :arrow: http://rutracker.org/forum/viewtopic.php?t=4198991 :thanx:

_________________


Top
 Profile E-mail  
 
 
PostPosted: 07 Dec 2015 
Хиппей (support team)
User avatar
Joined: 30 Jul 2007
Posts: 108205
Lоcаtion: Киев (Kyiv, UA)
Age: 45
Name: Andrey
Только сейчас поимел возможность оценить первый альбом группы и ИП-ишку.
Хороша музыка. Под олдскул. Да ещё и с саундом, очень приближенным к 80-м :meloman:
Вроде ничего оригинального в творчестве нет у ребят, но музыка и вокал цепляют хорошо :dance:

7/10

log
Exact Audio Copy V1.0 beta 3 from 29. August 2011

EAC extraction logfile from 16. September 2012, 11:03

Striker / Eyes In The Night

Used drive : PIONEER DVD-RW DVR-216D Adapter: 1 ID: 1

Read mode : Secure
Utilize accurate stream : Yes
Defeat audio cache : Yes
Make use of C2 pointers : No

Read offset correction : 96
Overread into Lead-In and Lead-Out : No
Fill up missing offset samples with silence : Yes
Delete leading and trailing silent blocks : No
Null samples used in CRC calculations : Yes
Used interface : Native Win32 interface for Win NT & 2000

Used output format : Monkey's Audio Lossless Encoder
Selected bitrate : High Lossless Compression
Quality : High
Add ID3 tag : Yes
Command line compressor : C:\Programmi\Monkey's Audio\MAC.exe


TOC of the extracted CD

Track | Start | Length | Start sector | End sector
---------------------------------------------------------
1 | 0:00.00 | 3:09.65 | 0 | 14239
2 | 3:09.65 | 4:13.27 | 14240 | 33241
3 | 7:23.17 | 3:42.05 | 33242 | 49896
4 | 11:05.22 | 4:37.10 | 49897 | 70681
5 | 15:42.32 | 3:55.25 | 70682 | 88331
6 | 19:37.57 | 4:09.03 | 88332 | 107009
7 | 23:46.60 | 4:54.02 | 107010 | 129061
8 | 28:40.62 | 4:22.08 | 129062 | 148719
9 | 33:02.70 | 5:48.40 | 148720 | 174859
10 | 38:51.35 | 4:17.54 | 174860 | 194188
11 | 43:09.14 | 3:22.45 | 194189 | 209383
12 | 46:31.59 | 4:59.55 | 209384 | 231863
13 | 51:31.39 | 3:46.54 | 231864 | 248867
14 | 55:18.18 | 6:04.42 | 248868 | 276209
15 | 61:22.60 | 3:58.02 | 276210 | 294061


Range status and errors

Selected range

Filename C:\Documents and Settings\oem\Documenti\Musica\Striker - Eyes In The Night\Striker - Eyes In The Night.wav

Peak level 100.0 %
Extraction speed 7.4 X
Range quality 100.0 %
Copy CRC 6BE29995
Copy OK

No errors occurred


AccurateRip summary

Track 1 not present in database
Track 2 not present in database
Track 3 not present in database
Track 4 not present in database
Track 5 not present in database
Track 6 not present in database
Track 7 not present in database
Track 8 not present in database
Track 9 not present in database
Track 10 not present in database
Track 11 not present in database
Track 12 not present in database
Track 13 not present in database
Track 14 not present in database
Track 15 not present in database

None of the tracks are present in the AccurateRip database

End of status report

==== Log checksum 41275E39C72267AB25FAC5B01F9360D8624F51182B7E1A565AF906EE1E4876B5 ====

cue
REM GENRE "Heavy Metal"
REM DATE 2012
REM DISCID DE0F500F
REM COMMENT "ExactAudioCopy v1.0b3"
PERFORMER "Striker"
TITLE "Eyes In The Night"
FILE "Striker - Eyes In The Night.ape" WAVE
TRACK 01 AUDIO
TITLE "Full Speed Or No Speed"
PERFORMER "Striker"
INDEX 01 00:00:00
TRACK 02 AUDIO
TITLE "Eyes In The Night"
PERFORMER "Striker"
INDEX 01 03:09:65
TRACK 03 AUDIO
TITLE "We Don't Play By The Rules"
PERFORMER "Striker"
INDEX 01 07:23:17
TRACK 04 AUDIO
TITLE "Never Ending Nights"
PERFORMER "Striker"
INDEX 01 11:05:22
TRACK 05 AUDIO
TITLE "The White Knight"
PERFORMER "Striker"
INDEX 01 15:42:32
TRACK 06 AUDIO
TITLE "The Voice Of Rock"
PERFORMER "Striker"
INDEX 01 19:37:57
TRACK 07 AUDIO
TITLE "Ice Cold"
PERFORMER "Striker"
INDEX 01 23:46:60
TRACK 08 AUDIO
TITLE "Terrorizer"
PERFORMER "Striker"
INDEX 01 28:40:62
TRACK 09 AUDIO
TITLE "Believe In Me"
PERFORMER "Striker"
INDEX 01 33:02:70
TRACK 10 AUDIO
TITLE "Hang On"
PERFORMER "Striker"
INDEX 01 38:51:35
TRACK 11 AUDIO
TITLE "Road Warrior*"
PERFORMER "Striker"
INDEX 00 43:07:40
INDEX 01 43:09:14
TRACK 12 AUDIO
TITLE "Lord Of The Sword*"
PERFORMER "Striker"
INDEX 00 46:30:36
INDEX 01 46:31:59
TRACK 13 AUDIO
TITLE "Fire*"
PERFORMER "Striker"
INDEX 00 51:30:01
INDEX 01 51:31:39
TRACK 14 AUDIO
TITLE "Dark Heart Of The City*"
PERFORMER "Striker"
INDEX 00 55:17:00
INDEX 01 55:18:18
TRACK 15 AUDIO
TITLE "The Keg That Crushed New York*"
PERFORMER "Striker"
INDEX 00 61:21:63
INDEX 01 61:22:60

_________________


Top
 Profile E-mail  
 
 
PostPosted: 07 Dec 2015 
Partisanen - nicht kapitulieren!!
User avatar
Joined: 25 Dec 2011
Posts: 6755
Lоcаtion: партизанские леса
Age: 46
Name: Владимир
У кого там днюха из активных ближайшая? По 150$ и в школу не пойдём :dance:

_________________
One more beer and Heavy Metal and I'm just fine!
старовер, куле... слово "блин" - до сих пор через Ъ говорю


Top
 Profile E-mail  
 
 
PostPosted: 07 Dec 2015 
Хиппей (support team)
User avatar
Joined: 30 Jul 2007
Posts: 108205
Lоcаtion: Киев (Kyiv, UA)
Age: 45
Name: Andrey
Володь, ты про новый альбом группы?
Не-а, деньги то есть, но покупать сам диск это не есть полезно.
Ну, разве что купить на них подарок музыкантам? Кусок сала (на кабанчика как раз хватит). И отправить с Канаду :vic:

_________________


Top
 Profile E-mail  
 
 
PostPosted: 07 Dec 2015 
Рарник и трушник
User avatar
Joined: 25 Dec 2009
Posts: 8412
Lоcаtion: Москва
Age: 53
Name: Виталий
Чую, мне покатит! Чёт не встречал раньше команду, спасибо за водку...э...наводку. И 150$, кстати, можно сэкономить. ;) Тем более в завязке. ;)


Top
 Profile  
 
 
PostPosted: 07 Dec 2015 
Хиппей (support team)
User avatar
Joined: 30 Jul 2007
Posts: 108205
Lоcаtion: Киев (Kyiv, UA)
Age: 45
Name: Andrey
Качну пока два вторых альбома группы...

_________________


Top
 Profile E-mail  
 
 
PostPosted: 07 Dec 2015 
Хиппей (support team)
User avatar
Joined: 30 Jul 2007
Posts: 108205
Lоcаtion: Киев (Kyiv, UA)
Age: 45
Name: Andrey
Striker - 2012 - Armed To The Teeth [flac]

Image Image Image

mirror: iFolder l Narod l M-Cloud

Ура! Группа добавила в творчество креатива, свободы и скорости :lob: :lob: :lob:

7+/10

Так же взят рип с сайта RuTracker.org :thanx:

log
Exact Audio Copy V0.99 prebeta 5 from 4. May 2009

EAC extraction logfile from 3. September 2012, 15:55

Striker / Armed To The Teeth

Used drive : Optiarc DVD RW AD-7240S Adapter: 0 ID: 0

Read mode : Secure
Utilize accurate stream : Yes
Defeat audio cache : Yes
Make use of C2 pointers : No

Read offset correction : 48
Overread into Lead-In and Lead-Out : No
Fill up missing offset samples with silence : Yes
Delete leading and trailing silent blocks : No
Null samples used in CRC calculations : No
Used interface : Native Win32 interface for Win NT & 2000

Used output format : User Defined Encoder
Selected bitrate : 32 kBit/s
Quality : High
Add ID3 tag : No
Command line compressor : C:\FLAC.EXE
Additional command line options : -6 -V %s


TOC of the extracted CD

Track | Start | Length | Start sector | End sector
---------------------------------------------------------
1 | 0:00.00 | 2:54.17 | 0 | 13066
2 | 2:54.17 | 3:10.63 | 13067 | 27379
3 | 6:05.05 | 4:47.51 | 27380 | 48955
4 | 10:52.56 | 4:37.22 | 48956 | 69752
5 | 15:30.03 | 4:20.61 | 69753 | 89313
6 | 19:50.64 | 4:24.38 | 89314 | 109151
7 | 24:15.27 | 3:26.10 | 109152 | 124611
8 | 27:41.37 | 4:33.52 | 124612 | 145138
9 | 32:15.14 | 4:22.51 | 145139 | 164839
10 | 36:37.65 | 3:34.56 | 164840 | 180945


Range status and errors

Selected range

Filename D:\Striker - Armed To The Teeth.wav

Peak level 99.9 %
Range quality 100.0 %
Copy CRC 20E8C74D
Copy OK

No errors occurred


AccurateRip summary

Track 1 not present in database
Track 2 not present in database
Track 3 not present in database
Track 4 not present in database
Track 5 not present in database
Track 6 not present in database
Track 7 not present in database
Track 8 not present in database
Track 9 not present in database
Track 10 not present in database

None of the tracks are present in the AccurateRip database

End of status report

cue
REM GENRE "Heavy Metal"
REM DATE 2012
REM DISCID 94096C0A
REM COMMENT "ExactAudioCopy v0.99pb5"
PERFORMER "Striker"
TITLE "Armed To The Teeth"
FILE "Striker - Armed To The Teeth.flac" WAVE
TRACK 01 AUDIO
TITLE "Forever"
PERFORMER "Striker"
INDEX 01 00:00:00
TRACK 02 AUDIO
TITLE "Let It Burn"
PERFORMER "Striker"
INDEX 01 02:54:17
TRACK 03 AUDIO
TITLE "Lethal Force"
PERFORMER "Striker"
INDEX 01 06:05:05
TRACK 04 AUDIO
TITLE "It Could Be Worse"
PERFORMER "Striker"
INDEX 01 10:52:56
TRACK 05 AUDIO
TITLE "Fight For Your Life"
PERFORMER "Striker"
INDEX 01 15:30:03
TRACK 06 AUDIO
TITLE "Land Of The Lost"
PERFORMER "Striker"
INDEX 01 19:50:64
TRACK 07 AUDIO
TITLE "Wolf Gang"
PERFORMER "Striker"
INDEX 01 24:15:27
TRACK 08 AUDIO
TITLE "Feed My Fire"
PERFORMER "Striker"
INDEX 01 27:41:37
TRACK 09 AUDIO
TITLE "All The Way"
PERFORMER "Striker"
INDEX 01 32:15:14
TRACK 10 AUDIO
TITLE "Can't Stop The Rush"
PERFORMER "Striker"
INDEX 01 36:37:65

_________________


Top
 Profile E-mail  
 
 
PostPosted: 07 Dec 2015 
Небесный болтер
User avatar
Joined: 28 Apr 2008
Posts: 2601
Lоcаtion: Верхние Шипки
Age: 35
Name: К. Кастальский
Хорошая группа. Но на новом альбоме чота слишком модная стала...


Top
 Profile  
 
 
PostPosted: 07 Dec 2015 
Я набрал 1000 сообщений!
Joined: 21 Nov 2009
Posts: 1399
Lоcаtion: praga
Age: 48
Name: Сергей
Давно слежу за этой коммандой:хорошая музыка,правильный вид.Но есть жирный минус-не запоминается и все тут,мелодия ускальзает как утренний сон после похода до тубзика.Послушал альбом(да хотя бы одну песню) и можно сново включать. :nea:


Top
 Profile E-mail  
 
 
PostPosted: 07 Dec 2015 
Хиппей (support team)
User avatar
Joined: 30 Jul 2007
Posts: 108205
Lоcаtion: Киев (Kyiv, UA)
Age: 45
Name: Andrey
Хорошая группа. Но на новом альбоме чота слишком модная стала...

Явно подписались на солидном лэйбле?

_________________


Top
 Profile E-mail  
 
 
PostPosted: 07 Dec 2015 
Хиппей (support team)
User avatar
Joined: 30 Jul 2007
Posts: 108205
Lоcаtion: Киев (Kyiv, UA)
Age: 45
Name: Andrey
Давно слежу за этой коммандой:хорошая музыка,правильный вид.Но есть жирный минус-не запоминается и все тут,мелодия ускальзает как утренний сон после похода до тубзика.Послушал альбом(да хотя бы одну песню) и можно сново включать. :nea:

Да, с хитовостью у них слабовато.
Ну дык, по-моему это у группы из-за отсутствия хоральных бэков и как таковых - стадионных припевов. Так что, тоже пардон, не тот формат музыки это, чтобы запоминались песенки с нескольких прослушиваний навсегда :pardon:

_________________


Top
 Profile E-mail  
 
Display posts from previous:  Sort by  
Post new topic Reply to topic  [ 46 posts ]  Go to page 1, 2, 3  Next

All times are UTC + 3 hours


Who is online

Users browsing this forum: Yandex [Bot] and 1 guest


You cannot post new topics in this forum
You cannot reply to topics in this forum
You cannot edit your posts in this forum
You cannot delete your posts in this forum
You cannot post attachments in this forum

Search for:
Яндекс.Метрика
Powered by phpBB © 2000, 2002, 2005, 2007 phpBB Group