\m/ 80's metal \m/

Информационно-аналитический форум "80 см пыли" (In Search We Trust) "У нас никто никуда не спешит"
Me For You - http://me-4u.com
It is currently 01 Apr 2020

All times are UTC + 3 hours

Spoiler
Chat - temporary registration for foreign users (please leave your application here)







Post new topic Reply to topic  [ 17 posts ] 
Author Message
 
PostPosted: 08 Mar 2009 
Я набрал 1000 сообщений!
Joined: 12 Dec 2008
Posts: 1085
Lоcаtion: BULGARIA
Age: 41
Name: DIMITЪR
Soldier - Babylon(1986)

Image

1.Babylon
2.Louder Than Hell
3.Deadly Weapon
4.One Of A Kind
5.Priceless Heart
6.Where Have All The Children Gone
7.King Of The City
8.Borderline
9.Angel
10.First Time
11.Promises
*******************

Ищу альбом с 256-320kbps!!!!
Thanks!!! :true: :true: :true: :true: :true:


Top
 Profile  
 
 
PostPosted: 08 Mar 2009 
хард н хэвщик (support team)
User avatar
Joined: 02 Jun 2008
Posts: 16881
Lоcаtion: Н.Новгород
Age: 33
Name: Артем
в общем, этот альбом у меян есть. посмотрю, как там с качеством.


Top
 Profile  
 
 
PostPosted: 02 Jun 2009 
Персональный статус
User avatar
Joined: 01 May 2009
Posts: 349
Lоcаtion: Санкт - Петербург
Age: 34
Name: Игорь
У меня в 320 ..,
группа отличная !!!


Top
 Profile E-mail  
 
 
PostPosted: 02 Jun 2009 
Персональный статус
User avatar
Joined: 01 May 2009
Posts: 349
Lоcаtion: Санкт - Петербург
Age: 34
Name: Игорь
Soldier - Babylon(1986) - http://ifolder.ru/12434897


Top
 Profile E-mail  
 
 
PostPosted: 02 Jun 2009 
хард н хэвщик (support team)
User avatar
Joined: 02 Jun 2008
Posts: 16881
Lоcаtion: Н.Новгород
Age: 33
Name: Артем
рип с чего - кассеты?


Top
 Profile  
 
 
PostPosted: 02 Jun 2009 
Персональный статус
User avatar
Joined: 01 May 2009
Posts: 349
Lоcаtion: Санкт - Петербург
Age: 34
Name: Игорь
по этому поводу у меня сомнения :nea:

Soldier с наковальни остались ... когда то качал их
выкладывал товарищ javorin4o .. :thanx: .


Top
 Profile E-mail  
 
 
PostPosted: 02 Jun 2009 
хард н хэвщик (support team)
User avatar
Joined: 02 Jun 2008
Posts: 16881
Lоcаtion: Н.Новгород
Age: 33
Name: Артем
у меня есть вот этот релиз: http://www.metal-archives.com/release.php?id=35720
Soldier (US) - The Definitive Collection 1985-1989 , издание от Magdalen Records 2008 года. выложу, как найду на жестком дсике


Top
 Profile  
 
 
PostPosted: 04 Mar 2017 
Зарегился вот...
Joined: 29 Mar 2010
Posts: 4
Lоcаtion: Spain
Name: Antonio
link out, please reuploaded


Top
 Profile E-mail  
 
 
PostPosted: 09 Mar 2017 
Труъ
User avatar
Joined: 28 Mar 2013
Posts: 153
Lоcаtion: Северна Корея
Name: /Kim
320 Кб/с

https://myzuka.fm/Album/813795/Soldier-Usa-Babylon-1986


Top
 Profile E-mail  
 
 
PostPosted: 09 Mar 2017 
Хиппей (support team)
User avatar
Joined: 30 Jul 2007
Posts: 118455
Lоcаtion: Киев (Kyiv, UA)
Age: 46
Name: Andrey
:thanx:

_________________


Top
 Profile E-mail  
 
 
PostPosted: 04 Jan 2020 
Я набрал 1000 сообщений!
User avatar
Joined: 21 Nov 2009
Posts: 1438
Lоcаtion: praga
Age: 49
Name: Сергей
https://rutracker.org/forum/viewtopic.php?t=5826990

Тут лежит лосик переизданного в 2018 Soldier.Отличный буклетик и даже не изданные трэки этой "христианской" команды!!!Советую так же присмотреться на другие позиции,который Kantor1975 раздаёт-редкие хаерные группы.Андрюша кстати,он твой соотечественник.Может знаешь хлопчика?Вообщем респект ему и уважуха-давно искал Soldier в качестве.

Image


Last edited by sin2 on 04 Jan 2020, edited 1 time in total.

Top
 Profile E-mail  
 
 
PostPosted: 04 Jan 2020 
Я набрал 1000 сообщений!
User avatar
Joined: 21 Nov 2009
Posts: 1438
Lоcаtion: praga
Age: 49
Name: Сергей
https://rutracker.org/forum/viewtopic.php?t=5713279

Дополнительно кину ссылку на переиздание еще одних метал "христиан": Regime-S.T.Y.H. 1991 в которых далее играл бассист из Soldier.Музыка в стиле первого альбома Holy Soldier.Правда раздача слабая,но можно найти и в сети.

Image


Top
 Profile E-mail  
 
 
PostPosted: 10 Jan 2020 
Хиппей (support team)
User avatar
Joined: 30 Jul 2007
Posts: 118455
Lоcаtion: Киев (Kyiv, UA)
Age: 46
Name: Andrey
sin2 wrote:
Андрюша кстати,он твой соотечественник.Может знаешь хлопчика?

:shok: :shok: :shok:
А шо, ты не мой (и как давно?) соотечественник и .. и вообще, зачем мне Кантор? :benya: :benya: :benya:

За ссылки спасибки, как-то качну-гляну :thanx:

_________________


Top
 Profile E-mail  
 
 
PostPosted: 13 Jan 2020 
Хиппей (support team)
User avatar
Joined: 30 Jul 2007
Posts: 118455
Lоcаtion: Киев (Kyiv, UA)
Age: 46
Name: Andrey
sin2 wrote:

:thanx:

Soldier - 2018 - Babylon And Beyond (2CD) [flac]

Image

Image

mirror: Telega l Ur-Files l Uloz l Narod

pics
Image

Image

Image

Image

Image

Image

Image

Image

Image

Image

Image

Image


CD1 - log
Exact Audio Copy V1.3 from 2. September 2016

Отчёт EAC об извлечении, выполненном 28. декабря 2019, 10:17

Soldier / Babylon & Beyond

Дисковод: ASUS DRW-1612BL Adapter: 3 ID: 1

Режим чтения : Достоверность
Использование точного потока : Да
Отключение кэша аудио : Да
Использование указателей C2 : Нет

Коррекция смещения при чтении : 6
Способность читать области Lead-in и Lead-out : Нет
Заполнение пропущенных сэмплов тишиной : Да
Удаление блоков с тишиной в начале и конце : Нет
При вычислениях CRC использовались нулевые сэмплы : Да
Интерфейс : Установленный внешний ASPI-интерфейс

Выходной формат : Пользовательский кодировщик
Выбранный битрейт : 128 kBit/s
Качество : Высокий
Добавление ID3-тега : Нет
Утилита сжатия : C:\Program Files\Exact Audio Copy\Flac\flac.exe
Дополнительные параметры : -V -8 -T "Date=%year%" -T "Genre=%genre%" %source%


TOC извлечённого CD

Трек | Старт | Длительность | Начальный сектор | Конечный сектор
---------------------------------------------------------------------
1 | 0:00.00 | 1:34.65 | 0 | 7114
2 | 1:34.65 | 3:34.40 | 7115 | 23204
3 | 5:09.30 | 2:59.00 | 23205 | 36629
4 | 8:08.30 | 3:02.10 | 36630 | 50289
5 | 11:10.40 | 4:12.65 | 50290 | 69254
6 | 15:23.30 | 3:06.13 | 69255 | 83217
7 | 18:29.43 | 3:01.35 | 83218 | 96827
8 | 21:31.03 | 3:46.53 | 96828 | 113830
9 | 25:17.56 | 3:57.26 | 113831 | 131631
10 | 29:15.07 | 3:39.23 | 131632 | 148079
11 | 32:54.30 | 4:18.07 | 148080 | 167436
12 | 37:12.37 | 3:05.23 | 167437 | 181334
13 | 40:17.60 | 3:47.64 | 181335 | 198423
14 | 44:05.49 | 4:11.28 | 198424 | 217276
15 | 48:17.02 | 3:13.57 | 217277 | 231808
16 | 51:30.59 | 3:03.56 | 231809 | 245589
17 | 54:34.40 | 5:24.08 | 245590 | 269897
18 | 59:58.48 | 4:05.36 | 269898 | 288308
19 | 64:04.09 | 3:30.33 | 288309 | 304091
20 | 67:34.42 | 3:52.34 | 304092 | 321525


Характеристики диапазона извлечения и сообщения об ошибках

Выбранный диапазон

Имя файла D:\Soldier - Babylon & Beyond CD 1.wav

Пиковый уровень 100.0 %
Скорость извлечения 7.3 X
Качество диапазона 100.0 %
CRC теста A0FAD609
CRC копии A0FAD609
Копирование... OK

Ошибок не произошло


AccurateRip: сводка

Трек 1 : извлечено точно (доверие 2) [FFC1CDC0] (AR v2)
Трек 2 : извлечено точно (доверие 2) [7A8B73AA] (AR v2)
Трек 3 : извлечено точно (доверие 2) [7CF8CA7C] (AR v2)
Трек 4 : извлечено точно (доверие 2) [77FBEA4D] (AR v2)
Трек 5 : извлечено точно (доверие 2) [F4D22F41] (AR v2)
Трек 6 : извлечено точно (доверие 2) [336C3B33] (AR v2)
Трек 7 : извлечено точно (доверие 2) [10789726] (AR v2)
Трек 8 : извлечено точно (доверие 2) [7DAE7C24] (AR v2)
Трек 9 : извлечено точно (доверие 2) [AA5B7565] (AR v2)
Трек 10 : извлечено точно (доверие 2) [48DFA515] (AR v2)
Трек 11 : извлечено точно (доверие 2) [83F08698] (AR v2)
Трек 12 : извлечено точно (доверие 2) [80881775] (AR v2)
Трек 13 : извлечено точно (доверие 2) [B6343CF3] (AR v2)
Трек 14 : извлечено точно (доверие 2) [E57A0F66] (AR v2)
Трек 15 : извлечено точно (доверие 2) [6D6F3547] (AR v2)
Трек 16 : извлечено точно (доверие 2) [7A77EA2F] (AR v2)
Трек 17 : извлечено точно (доверие 2) [0C151780] (AR v2)
Трек 18 : извлечено точно (доверие 2) [DE8D7EA4] (AR v2)
Трек 19 : извлечено точно (доверие 2) [DCA1B276] (AR v2)
Трек 20 : извлечено точно (доверие 2) [DC34D7FC] (AR v2)

Все треки извлечены точно

Конец отчёта

---- CUETools DB Plugin V2.1.6

[CTDB TOCID: SRTgGzIo1PXNjrQEBuA6.WgWS2c-] found
Submit result: SRTgGzIo1PXNjrQEBuA6.WgWS2c- has been confirmed
Track | CTDB Status
1 | (3/3) Accurately ripped
2 | (3/3) Accurately ripped
3 | (3/3) Accurately ripped
4 | (3/3) Accurately ripped
5 | (3/3) Accurately ripped
6 | (3/3) Accurately ripped
7 | (3/3) Accurately ripped
8 | (3/3) Accurately ripped
9 | (3/3) Accurately ripped
10 | (3/3) Accurately ripped
11 | (3/3) Accurately ripped
12 | (3/3) Accurately ripped
13 | (3/3) Accurately ripped
14 | (3/3) Accurately ripped
15 | (3/3) Accurately ripped
16 | (3/3) Accurately ripped
17 | (3/3) Accurately ripped
18 | (3/3) Accurately ripped
19 | (3/3) Accurately ripped
20 | (3/3) Accurately ripped


==== Контрольная сумма отчёта 2B015FB0BEC27DE823E307E28A13F4C5E90AB1F682ADADEF3CABE3CB74F73105 ====

CD2 - log
Exact Audio Copy V1.3 from 2. September 2016

Отчёт EAC об извлечении, выполненном 28. декабря 2019, 10:53

Soldier / Babylon & Beyond

Дисковод: ASUS DRW-1612BL Adapter: 3 ID: 1

Режим чтения : Достоверность
Использование точного потока : Да
Отключение кэша аудио : Да
Использование указателей C2 : Нет

Коррекция смещения при чтении : 6
Способность читать области Lead-in и Lead-out : Нет
Заполнение пропущенных сэмплов тишиной : Да
Удаление блоков с тишиной в начале и конце : Нет
При вычислениях CRC использовались нулевые сэмплы : Да
Интерфейс : Установленный внешний ASPI-интерфейс

Выходной формат : Пользовательский кодировщик
Выбранный битрейт : 128 kBit/s
Качество : Высокий
Добавление ID3-тега : Нет
Утилита сжатия : C:\Program Files\Exact Audio Copy\Flac\flac.exe
Дополнительные параметры : -V -8 -T "Date=%year%" -T "Genre=%genre%" %source%


TOC извлечённого CD

Трек | Старт | Длительность | Начальный сектор | Конечный сектор
---------------------------------------------------------------------
1 | 0:00.00 | 4:47.00 | 0 | 21524
2 | 4:47.00 | 3:35.61 | 21525 | 37710
3 | 8:22.61 | 5:12.67 | 37711 | 61177
4 | 13:35.53 | 4:50.32 | 61178 | 82959
5 | 18:26.10 | 1:47.34 | 82960 | 91018
6 | 20:13.44 | 5:37.54 | 91019 | 116347
7 | 25:51.23 | 3:15.68 | 116348 | 131040
8 | 29:07.16 | 3:24.31 | 131041 | 146371
9 | 32:31.47 | 5:59.44 | 146372 | 173340
10 | 38:31.16 | 7:34.12 | 173341 | 207402
11 | 46:05.28 | 4:43.21 | 207403 | 228648
12 | 50:48.49 | 1:56.33 | 228649 | 237381
13 | 52:45.07 | 4:27.63 | 237382 | 257469
14 | 57:12.70 | 3:37.32 | 257470 | 273776


Характеристики диапазона извлечения и сообщения об ошибках

Выбранный диапазон

Имя файла D:\Soldier - Babylon & Beyond CD 2.wav

Пиковый уровень 99.9 %
Скорость извлечения 4.0 X
Качество диапазона 99.9 %
CRC теста 781290B9
CRC копии 781290B9
Копирование... OK

Ошибок не произошло


AccurateRip: сводка

Трек 1 : извлечено точно (доверие 2) [BA450119] (AR v2)
Трек 2 : извлечено точно (доверие 2) [4193D8B0] (AR v2)
Трек 3 : извлечено точно (доверие 2) [3E101BA5] (AR v2)
Трек 4 : извлечено точно (доверие 2) [470A696F] (AR v2)
Трек 5 : извлечено точно (доверие 2) [E100A508] (AR v2)
Трек 6 : извлечено точно (доверие 2) [3919FA4D] (AR v2)
Трек 7 : извлечено точно (доверие 2) [CF521B48] (AR v2)
Трек 8 : извлечено точно (доверие 2) [820779AE] (AR v2)
Трек 9 : извлечено точно (доверие 2) [067BD953] (AR v2)
Трек 10 : извлечено точно (доверие 2) [F50BB912] (AR v2)
Трек 11 : извлечено точно (доверие 2) [FC64639D] (AR v2)
Трек 12 : извлечено точно (доверие 2) [B6068298] (AR v2)
Трек 13 : извлечено точно (доверие 2) [92077985] (AR v2)
Трек 14 : извлечено точно (доверие 2) [269BDC76] (AR v2)

Все треки извлечены точно

Конец отчёта

---- CUETools DB Plugin V2.1.6

[CTDB TOCID: 0VrdM7UTMgtf3o7146xNdqYykQw-] found
Submit result: 0VrdM7UTMgtf3o7146xNdqYykQw- has been confirmed
Track | CTDB Status
1 | (3/3) Accurately ripped
2 | (3/3) Accurately ripped
3 | (3/3) Accurately ripped
4 | (3/3) Accurately ripped
5 | (3/3) Accurately ripped
6 | (3/3) Accurately ripped
7 | (3/3) Accurately ripped
8 | (3/3) Accurately ripped
9 | (3/3) Accurately ripped
10 | (3/3) Accurately ripped
11 | (3/3) Accurately ripped
12 | (3/3) Accurately ripped
13 | (3/3) Accurately ripped
14 | (3/3) Accurately ripped


==== Контрольная сумма отчёта A686118AD1A67CC46D43B461118381FA33D5B1FB6920879D609ADFC2A6BC539F ====

CD1 - cue
REM GENRE "Heavy Metal"
REM DATE 2018
REM DISCID 2810BF14
REM COMMENT "ExactAudioCopy v1.3"
PERFORMER "Soldier"
TITLE "Babylon & Beyond"
REM COMPOSER ""
FILE "Soldier - Babylon & Beyond CD 1.flac" WAVE
TRACK 01 AUDIO
TITLE "Babylon"
PERFORMER "Soldier"
REM COMPOSER ""
INDEX 01 00:00:00
TRACK 02 AUDIO
TITLE "Louder Then Hell"
PERFORMER "Soldier"
REM COMPOSER ""
INDEX 01 01:34:65
TRACK 03 AUDIO
TITLE "Deadly Weapon"
PERFORMER "Soldier"
REM COMPOSER ""
INDEX 01 05:09:30
TRACK 04 AUDIO
TITLE "One Of A Kind"
PERFORMER "Soldier"
REM COMPOSER ""
INDEX 01 08:08:30
TRACK 05 AUDIO
TITLE "Priceless Heart"
PERFORMER "Soldier"
REM COMPOSER ""
INDEX 01 11:10:40
TRACK 06 AUDIO
TITLE "Whore Have All The Children Gone"
PERFORMER "Soldier"
REM COMPOSER ""
INDEX 01 15:23:30
TRACK 07 AUDIO
TITLE "King Of The City"
PERFORMER "Soldier"
REM COMPOSER ""
INDEX 01 18:29:43
TRACK 08 AUDIO
TITLE "Bordeline"
PERFORMER "Soldier"
REM COMPOSER ""
INDEX 01 21:31:03
TRACK 09 AUDIO
TITLE "Angel"
PERFORMER "Soldier"
REM COMPOSER ""
INDEX 01 25:17:56
TRACK 10 AUDIO
TITLE "First Time"
PERFORMER "Soldier"
REM COMPOSER ""
INDEX 01 29:15:07
TRACK 11 AUDIO
TITLE "Promises"
PERFORMER "Soldier"
REM COMPOSER ""
INDEX 01 32:54:30
TRACK 12 AUDIO
TITLE "Heart Of Stone"
PERFORMER "Soldier"
REM COMPOSER ""
INDEX 01 37:12:37
TRACK 13 AUDIO
TITLE "Somebody New"
PERFORMER "Soldier"
REM COMPOSER ""
INDEX 01 40:17:60
TRACK 14 AUDIO
TITLE "Angel"
PERFORMER "Soldier"
REM COMPOSER ""
INDEX 01 44:05:49
TRACK 15 AUDIO
TITLE "King Of The City(Live)"
PERFORMER "Soldier"
REM COMPOSER ""
INDEX 01 48:17:02
TRACK 16 AUDIO
TITLE "Glory And Honor (Live)"
PERFORMER "Soldier"
REM COMPOSER ""
INDEX 01 51:30:59
TRACK 17 AUDIO
TITLE "Priceless Heart(Live)"
PERFORMER "Soldier"
REM COMPOSER ""
INDEX 01 54:34:40
TRACK 18 AUDIO
TITLE "Heart Of Stone(Live)"
PERFORMER "Soldier"
REM COMPOSER ""
INDEX 01 59:58:48
TRACK 19 AUDIO
TITLE "Borderline(California Metal II)"
PERFORMER "Soldier"
REM COMPOSER ""
INDEX 01 64:04:09
TRACK 20 AUDIO
TITLE "Tears(California Metal II)"
PERFORMER "Soldier"
REM COMPOSER ""
INDEX 01 67:34:42

CD2 - cue
REM GENRE "Heavy Metal"
REM DATE 2018
REM DISCID BC0E420E
REM COMMENT "ExactAudioCopy v1.3"
PERFORMER "Soldier"
TITLE "Babylon & Beyond"
REM COMPOSER ""
FILE "Soldier - Babylon & Beyond CD 2.flac" WAVE
TRACK 01 AUDIO
TITLE "When I Finally See Your Face"
PERFORMER "Soldier"
REM COMPOSER ""
INDEX 01 00:00:00
TRACK 02 AUDIO
TITLE "Blues For The Fallin'"
PERFORMER "Soldier"
REM COMPOSER ""
INDEX 01 04:47:00
TRACK 03 AUDIO
TITLE "Thru The Past Darkly"
PERFORMER "Soldier"
REM COMPOSER ""
INDEX 01 08:22:61
TRACK 04 AUDIO
TITLE "Down On The Killin Floor"
PERFORMER "Soldier"
REM COMPOSER ""
INDEX 01 13:35:53
TRACK 05 AUDIO
TITLE "Intro (Live)"
PERFORMER "Soldier"
REM COMPOSER ""
INDEX 01 18:26:10
TRACK 06 AUDIO
TITLE "King Of The City (Live)"
PERFORMER "Soldier"
REM COMPOSER ""
INDEX 01 20:13:44
TRACK 07 AUDIO
TITLE "One Of A Kind Romance (Live)"
PERFORMER "Soldier"
REM COMPOSER ""
INDEX 01 25:51:23
TRACK 08 AUDIO
TITLE "Angel (Live)"
PERFORMER "Soldier"
REM COMPOSER ""
INDEX 01 29:07:16
TRACK 09 AUDIO
TITLE "Glory And Honor (Live)"
PERFORMER "Soldier"
REM COMPOSER ""
INDEX 01 32:31:47
TRACK 10 AUDIO
TITLE "Somebody New (Live)"
PERFORMER "Soldier"
REM COMPOSER ""
INDEX 01 38:31:16
TRACK 11 AUDIO
TITLE "First Time (Live)"
PERFORMER "Soldier"
REM COMPOSER ""
INDEX 01 46:05:28
TRACK 12 AUDIO
TITLE "Guitar Solo (Live)"
PERFORMER "Soldier"
REM COMPOSER ""
INDEX 01 50:48:49
TRACK 13 AUDIO
TITLE "Heart Of Stone (Live)"
PERFORMER "Soldier"
REM COMPOSER ""
INDEX 01 52:45:07
TRACK 14 AUDIO
TITLE "Call My Name (Live)"
PERFORMER "Soldier"
REM COMPOSER ""
INDEX 01 57:12:70

_________________


Top
 Profile E-mail  
 
 
PostPosted: 13 Jan 2020 
Хиппей (support team)
User avatar
Joined: 30 Jul 2007
Posts: 118455
Lоcаtion: Киев (Kyiv, UA)
Age: 46
Name: Andrey
Ну такой себе альбом, на любителя попсовенького хэви, пардон.

Тема переносится в "Бухту". Сане спасибо за ссылку на ссылку :thanx:

_________________


Top
 Profile E-mail  
 
 
PostPosted: 13 Jan 2020 
Я набрал 1000 сообщений!
User avatar
Joined: 21 Nov 2009
Posts: 1438
Lоcаtion: praga
Age: 49
Name: Сергей
Ну вообще то хэви в стиле Stryper,Holy Solder,Gardian и Mass (us).Очень классное музло!И не попсовое,а хитовое Андрюш.


Top
 Profile E-mail  
 
 
PostPosted: 15 Jan 2020 
Хиппей (support team)
User avatar
Joined: 30 Jul 2007
Posts: 118455
Lоcаtion: Киев (Kyiv, UA)
Age: 46
Name: Andrey
Именно шо попсовое. И называется это чётко - Melodic Heavy Metal.
Регими тоже попса :(
Сегодня перезалью и их. Хотя явно тема отдельная по той группе у нас давно была.

_________________


Top
 Profile E-mail  
 
Display posts from previous:  Sort by  
Post new topic Reply to topic  [ 17 posts ] 

All times are UTC + 3 hours


Who is online

Users browsing this forum: No registered users and 1 guest


You cannot post new topics in this forum
You cannot reply to topics in this forum
You cannot edit your posts in this forum
You cannot delete your posts in this forum
You cannot post attachments in this forum

Search for:
Яндекс.Метрика
Powered by phpBB © 2000, 2002, 2005, 2007 phpBB Group