\m/ 80's metal \m/

Информационно-аналитический форум "80 см пыли" (In Search We Trust) "У нас никто никуда не спешит"
Me For You - http://me-4u.com
It is currently 22 Nov 2018

All times are UTC + 3 hours

Spoiler
Chat - temporary registration for foreign users (please leave your application here)







Post new topic Reply to topic  [ 2 posts ] 
Author Message
 
PostPosted: 06 Mar 2009 
Хиппей (support team)
User avatar
Joined: 30 Jul 2007
Posts: 108264
Lоcаtion: Киев (Kyiv, UA)
Age: 45
Name: Andrey
Scatterbrain - 1994 - Mundus Intellectualis (EP) [flac]

Image

Genre: Hardcore/Funkcore
Location: USA
Format: flac+cue+log+scans
Size: 186 Mb


Line-up:
Tommy Christ - Vocals
Paul Nieder - Guitars
Guy Brogna - Bass
Mike Boyko - Drums
    1. Write That Hit - 03:35
    2. Beer Muscle - 03:55
    3. Everybody Does It - 04:37
    4. A Funny Thing - 04:06
    5. How Could I Love You - 03:42
    6. Dead Man Blues - 02:31
    7. Down With The Ship (New And Improved) - 02:54

    TPT: 25:24
Mega

За альбом все благодарности Славику (Hellcat502) :thanx:

Image
log
Quote:
Exact Audio Copy V0.99 prebeta 4 from 23. January 2008

Отчёт EAC об извлечении, выполненном 15. февраля 2009, 22:12

Scatterbrain / Mundus Intellectualis

Дисковод: ASUS DRW-1608P Adapter: 1 ID: 0

Режим чтения : Достоверность
Использование точного потока : Да
Отключение кэша аудио : Да
Использование указателей C2 : Нет

Коррекция смещения при чтении : 48
Способность читать области Lead-in и Lead-out : Нет
Заполнение пропущенных сэмплов тишиной : Да
Удаление блоков с тишиной в начале и конце : Нет
При вычислениях CRC использовались нулевые сэмплы : Да
Интерфейс : Установленный внешний ASPI-интерфейс

Выходной формат : Внутренние WAV-операции
Формат сэмплов : 44.100 Гц; 16 бит; стерео


TOC извлечённого CD

Трек | Старт | Длительность | Начальный сектор | Конечный сектор
---------------------------------------------------------------------
1 | 0:00.00 | 3:35.50 | 0 | 16174
2 | 3:35.50 | 3:55.20 | 16175 | 33819
3 | 7:30.70 | 4:37.55 | 33820 | 54649
4 | 12:08.50 | 4:06.67 | 54650 | 73166
5 | 16:15.42 | 3:42.38 | 73167 | 89854
6 | 19:58.05 | 2:31.42 | 89855 | 101221
7 | 22:29.47 | 2:50.73 | 101222 | 114044


Характеристики диапазона извлечения и сообщения об ошибках

Выбранный диапазон

Имя файла C:\My Music\Scatterbrain - Mundus Intellectualis\Scatterbrain - Mundus Intellectualis.wav

Пиковый уровень 100.0 %
Качество диапазона 100.0 %
CRC копии D992E3E4
Копирование... OK

Ошибок не произошло


AccurateRip: сводка

Трек 1 точное извлечение (доверие 2) [7B0BD25C]
Трек 2 точное извлечение (доверие 2) [EE214AB4]
Трек 3 точное извлечение (доверие 2) [D0FEC6D4]
Трек 4 точное извлечение (доверие 2) [F10BD792]
Трек 5 точное извлечение (доверие 2) [5ED0E3C6]
Трек 6 точное извлечение (доверие 2) [013B8E6D]
Трек 7 точное извлечение (доверие 2) [74A4FA7B]

Все треки извлечены точно

Конец отчёта


Top
 Profile E-mail  
 
 
PostPosted: 03 Jun 2009 
Пионэръ
Joined: 19 Jan 2009
Posts: 34
Age: 28
Name: .
Спасибо=) В свое время их полноформатники очень удивили. Необыкновенный материал. Где сочитается и обычный хеви, и угарный кроссовер, ибольшое колличество фанка


Top
 Profile  
 
Display posts from previous:  Sort by  
Post new topic Reply to topic  [ 2 posts ] 

All times are UTC + 3 hours


Who is online

Users browsing this forum: No registered users and 3 guests


You cannot post new topics in this forum
You cannot reply to topics in this forum
You cannot edit your posts in this forum
You cannot delete your posts in this forum
You cannot post attachments in this forum

Search for:
Яндекс.Метрика
Powered by phpBB © 2000, 2002, 2005, 2007 phpBB Group