\m/ 80's metal \m/
http://80metal.com/

Surgin - (USA) - Melodic Hard Rock [mp3 & lossless]
http://80metal.com/viewtopic.php?f=192&t=2303
Page 2 of 3

Author:  grin [ 06 Dec 2008 ]
Post subject:  Surgin - (USA) - Melodic Hard Rock [mp3 & lossless]

есть у кого отличная команда SURGIN-Electric Nights - The Final Chapter?очень хотел бы послушать. :oops: играют музыку типа white wolf.другие альбомы очень нравятся. :meloman:

Image

http://www.heavyharmonies.com/cgi-bin/b ... ndNum=1427

Author:  Scatterbrain [ 24 May 2012 ]
Post subject:  Re: [reup] Surgin - [USA] - Melodic Hard

wizard12 wrote:
остальные у киссмара

Дохленькие они тама :pardon:
Серёг, перезалить смогешь этот - Electric Nights - Final Chapter ?

Author:  glloomerxe [ 17 Sep 2013 ]
Post subject:  Re: [reup] Surgin - [USA] - Melodic Hard

Кто то владеет инфой какого года песни с этого альбома - Electric Nights - The Final Chapter 2003 потому как информации нигде нет и в буклете диска тоже даже нет состава , а запись старая еще с бобины записана на CD. Везде провалы и щелчки.
Мне кажется они записаны до этого альбома 1985 года. За альбом - Tokyo Rose 2002 ничего сказать не могу.

Author:  Dare-Devilina [ 25 Dec 2017 ]
Post subject:  Re: [reup] Surgin - [USA] - Melodic Hard

Surgin' - Electric Nights - Final Chapter (2003)
https://yadi.sk/mail/?hash=Byu0fuG00VKq ... =155099347

Author:  Scatterbrain [ 03 Jan 2018 ]
Post subject:  Re: Surgin - [USA] - Melodic Hard

:thanx:

mirror: Depos l Narod l M-Cloud l Drop

Author:  Scatterbrain [ 03 Jan 2018 ]
Post subject:  Re: Surgin - (USA) - Melodic Hard Rock

Альбом 2003 года э то сборник из демок? За какой именно год?
Сам пока не понял :vic:

Author:  Privateer [ 04 Jan 2018 ]
Post subject:  Re: Surgin - (USA) - Melodic Hard Rock

Коллеги, помогите пожалуйста утянуть альбом за 1985 год с трекера. Третий день висит на 98 процентах и ни гу-гу...

Author:  Scatterbrain [ 04 Jan 2018 ]
Post subject:  Re: Surgin - (USA) - Melodic Hard Rock

Толя, ссылочку бы хоть оставил...
С какого именно трекера то?

Author:  Scatterbrain [ 04 Jan 2018 ]
Post subject:  Re: Surgin - (USA) - Melodic Hard Rock

Этот? :arrow: viewtopic.php?p=157692#p157692

Author:  Scatterbrain [ 04 Jan 2018 ]
Post subject:  Re: Surgin - (USA) - Melodic Hard Rock

Скачал, спасибо :arrow: https://rutracker.org/forum/viewtopic.php?t=5022002 :thanx:

Image

Author:  Scatterbrain [ 04 Jan 2018 ]
Post subject:  Re: Surgin - (USA) - Melodic Hard Rock

Дальше что с ним делать? Слушать снова?

Author:  Scatterbrain [ 04 Jan 2018 ]
Post subject:  Re: [reup] Surgin - [USA] - Melodic Hard

Звук не очень понравился - пластик :(

Слушаю лося - аналогичный звук :pardon:

Author:  Scatterbrain [ 04 Jan 2018 ]
Post subject:  Re: Surgin - (USA) - Melodic Hard Rock

Surgin - 1985 - When Midnight Comes (Reissie Zoom Club Records 2001) [flac]

ImageImage Image

mirror: Depos l Narod l Drop l M-Cloud

Image Image Image

log
Exact Audio Copy V1.0 beta 3 from 29. August 2011

EAC extraction logfile from 22. May 2015, 21:54

Surgin / When Midnight Comes

Used drive : PIONEER DVD-RW DVR-221L Adapter: 2 ID: 0

Read mode : Secure
Utilize accurate stream : Yes
Defeat audio cache : Yes
Make use of C2 pointers : No

Read offset correction : 6
Overread into Lead-In and Lead-Out : No
Fill up missing offset samples with silence : Yes
Delete leading and trailing silent blocks : No
Null samples used in CRC calculations : Yes
Used interface : Native Win32 interface for Win NT & 2000

Used output format : Internal WAV Routines
Sample format : 44.100 Hz; 16 Bit; Stereo


TOC of the extracted CD

Track | Start | Length | Start sector | End sector
---------------------------------------------------------
1 | 0:00.00 | 3:09.33 | 0 | 14207
2 | 3:09.33 | 3:00.05 | 14208 | 27712
3 | 6:09.38 | 4:18.64 | 27713 | 47126
4 | 10:28.27 | 4:36.35 | 47127 | 67861
5 | 15:04.62 | 3:27.65 | 67862 | 83451
6 | 18:32.52 | 4:04.42 | 83452 | 101793
7 | 22:37.19 | 3:32.14 | 101794 | 117707
8 | 26:09.33 | 3:55.13 | 117708 | 135345
9 | 30:04.46 | 3:07.03 | 135346 | 149373
10 | 33:11.49 | 3:19.45 | 149374 | 164343


Range status and errors

Selected range

Filename D:\Свои Рипы на Линия Жизни\Surgin - When Midnight Comes.wav

Peak level 99.4 %
Extraction speed 4.4 X
Range quality 100.0 %
Copy CRC 6898430F
Copy OK

No errors occurred


AccurateRip summary

Track 1 accurately ripped (confidence 2) [C8995169] (AR v2)
Track 2 accurately ripped (confidence 2) [F0875911] (AR v2)
Track 3 accurately ripped (confidence 2) [38323FC6] (AR v2)
Track 4 accurately ripped (confidence 2) [EACE05DE] (AR v2)
Track 5 accurately ripped (confidence 2) [CB8294A9] (AR v2)
Track 6 accurately ripped (confidence 2) [19B7244C] (AR v2)
Track 7 accurately ripped (confidence 2) [154C0955] (AR v2)
Track 8 accurately ripped (confidence 2) [58F36CC4] (AR v2)
Track 9 accurately ripped (confidence 2) [A127E69D] (AR v2)
Track 10 accurately ripped (confidence 2) [01364DCA] (AR v2)

All tracks accurately ripped

End of status report

cue
REM GENRE "Melodic Hard Rock"
REM DATE 1985
REM DISCID 7C088F0A
REM COMMENT "ExactAudioCopy v1.0b3"
PERFORMER "Surgin"
TITLE "When Midnight Comes"
FILE "Surgin - When Midnight Comes.flac" WAVE
TRACK 01 AUDIO
TITLE "When Midnight Comes"
PERFORMER "Surgin"
INDEX 01 00:00:00
TRACK 02 AUDIO
TITLE "Shot Through The Heart"
PERFORMER "Surgin"
INDEX 00 03:07:73
INDEX 01 03:09:33
TRACK 03 AUDIO
TITLE "Not Done Lovin' You"
PERFORMER "Surgin"
INDEX 00 06:08:03
INDEX 01 06:09:38
TRACK 04 AUDIO
TITLE "In The Heat Of It All"
PERFORMER "Surgin"
INDEX 00 10:26:67
INDEX 01 10:28:27
TRACK 05 AUDIO
TITLE "Wait Until Morning"
PERFORMER "Surgin"
INDEX 00 15:03:27
INDEX 01 15:04:62
TRACK 06 AUDIO
TITLE "Hands Of Time"
PERFORMER "Surgin"
INDEX 00 18:31:17
INDEX 01 18:32:52
TRACK 07 AUDIO
TITLE "Turn The Radio On"
PERFORMER "Surgin"
INDEX 00 22:35:59
INDEX 01 22:37:19
TRACK 08 AUDIO
TITLE "Heartbeat Away"
PERFORMER "Surgin"
INDEX 00 26:07:73
INDEX 01 26:09:33
TRACK 09 AUDIO
TITLE "Hot Nights"
PERFORMER "Surgin"
INDEX 00 30:03:11
INDEX 01 30:04:46
TRACK 10 AUDIO
TITLE "Desiree"
PERFORMER "Surgin"
INDEX 00 33:10:14
INDEX 01 33:11:49

Author:  Privateer [ 04 Jan 2018 ]
Post subject:  Re: Surgin - (USA) - Melodic Hard Rock [mp3 & lossless]

Спасибо, Андрiй! Но у меня почему-то ничего не двигается с места... Как было 98% так и есть. Снёс поставил заново на скачку... Теперь естественно ничего не качается вообще.

Author:  Scatterbrain [ 04 Jan 2018 ]
Post subject:  Re: Surgin - (USA) - Melodic Hard Rock [mp3 & lossless]

Толя, мне тебе сказать уже известную присказку про рукожёпие? :mos1:

Author:  Privateer [ 05 Jan 2018 ]
Post subject:  Re: Surgin - (USA) - Melodic Hard Rock [mp3 & lossless]

Скажи конечно, но только сделай это так, чтобы потом опять не пришлось признавать себя не правым, к примеру как в некоторых других темах. :fingal: :crazy:

Я хотел скачать именно через торрент. Думал ты станешь на раздачу. И вроде бы ты стал, но у меня по второму разу всё так же остановилось на 98 процентах.

Author:  Scatterbrain [ 05 Jan 2018 ]
Post subject:  Re: Surgin - (USA) - Melodic Hard Rock [mp3 & lossless]

Privateer wrote:
Я хотел скачать именно через торрент.

Я тебя сразу же днём и спросил, уточнил, через какой именно и что именно.
И чо ты ответил то?

Всё, качай дальше сам торренты или жди от кого-то иного подмоги.

Author:  Scatterbrain [ 05 Jan 2018 ]
Post subject:  Re: Surgin - (USA) - Melodic Hard Rock [mp3 & lossless]

Privateer wrote:
Думал ты станешь на раздачу. И вроде бы ты стал, но у меня по второму разу всё так же остановилось на 98 процентах.

А, ну тут дело было так:
Когда ты утром сообщил сюда, шо тебе нужен какой-то торрент, я, естественно, полез в Гугл и нашёл что-то.
Поскольку ты в этот момент явно сидел в засаде где-то и не ответил ни разу на мой вопрос сюда. Я, мучаясь жаждой и кутаясь в кота, всё же понял тебя с третьей попытки и скачал за пару секунд файл с Рутрэкера.
Ну а дальше сразу же отключил торрент-клиент, удалил оттуда файл и перезалил на 4 файлообменника.
Если что, там сейчас три полных сида на том трекере сидят :cow:

зы. И чего ты мне в личку не написал пояснения хотя бы?

Author:  Scatterbrain [ 05 Jan 2018 ]
Post subject:  Re: Surgin - (USA) - Melodic Hard Rock [mp3 & lossless]

Кстати, сейчас глянул на трэкер в ту тему и понял твою проблему. Почему ты не можешь скачивать полностью файлы?
А ты же не нажал кнопку "Спасибо" :(

Image


Как там правильно по-русски звучит пословица про жадного стеснительного рукожёпа? :cry:

Author:  Privateer [ 05 Jan 2018 ]
Post subject:  Re: Surgin - (USA) - Melodic Hard Rock [mp3 & lossless]

Извини... я не настолько мобилен как ты и поэтому сразу же, оперативно не смог пожать твою мозолистую руку и поблагодарить тебя за оказанную мне услугу. Не успел, боярин... Сильно не пеняй.

Полным сидам спасибо, но у меня всё теже 98 процентов...

Author:  Scatterbrain [ 05 Jan 2018 ]
Post subject:  Re: Surgin - (USA) - Melodic Hard Rock [mp3 & lossless]

Ты до сих пор на ХР-винде сидишь?
Версия торрент-клиента какая?
Интернет соединение через какие шлюзы и порты проходит?

Дальше спрашивать? Или так и будешь мусолить капустный листок постоянно? :( :( :(

https://twitter.com/OfficialFPL/status/ ... 3113871367

Page 2 of 3 All times are UTC + 3 hours
Powered by phpBB © 2000, 2002, 2005, 2007 phpBB Group
http://www.phpbb.com/