\m/ 80's metal \m/

Информационно-аналитический форум "80 см пыли" (In Search We Trust) "У нас никто никуда не спешит"
Me For You - http://me-4u.com
It is currently 16 Apr 2021

All times are UTC + 3 hours

Spoiler
Chat - temporary registration for foreign users (please leave your application here)







Post new topic Reply to topic  [ 1 post ] 
Author Message
 
PostPosted: 04 Aug 2020 
Хиппей (support team)
User avatar
Joined: 30 Jul 2007
Posts: 121241
Lоcаtion: Киев (Kyiv, UA)
Age: 47
Name: Andrey
Quote:
Koshkin Dom

Шо это за монстр :shok: , клубничка или помидорка? На заднем фоне похоже дом Кузьмы, сделанный заботливыми руками, правда я и такой до сих пор не сделал :oops: , наш кот, то ящичек самостоятельно найдёт, то в тазик гнездится. Хочу сделать сам, вот шнур толстенный на 15 метров купил, а полено, которое надо им обматывать, и дощечки для дома всё забываю привезти, а покупать кошкин домик жаба давит :pardon:

Image

Енто Пушок, ну а фон все и так знают, щёлкнул несколько минут назад и сразу залил, для меня это просто рекорд скорости, кот ещё спит, отключился под какой-то Statetroopers :dance:

В общем. где Димка и я взяли эту группу. Но.. слушали. слушаем и явно слушать будем.
Лось остался. Явно это сборник.
Выложить лося не проблема, но.. куда-то при попытке запилить клип на Ютуб, пропал.. куй :fingal:
СидиЭкстраткор его сожрал, шоле, еще полгода назад.
В общем, заливаю хоть в таком варианте:

Statetroopers - 2002 - Statetroopers [flac]

Image

mirror: Telega l Ur-Files l Uloz l Narod

https://www.discogs.com/ru/Statetrooper ... se/5877138

log
Exact Audio Copy V1.0 beta 3 from 29. August 2011

EAC extraction logfile from 25. January 2016, 7:08

Statetrooper / Statetrooper

Used drive : ASUS CD-S520/A Adapter: 0 ID: 1

Read mode : Burst

Read offset correction : 1194
Overread into Lead-In and Lead-Out : No
Fill up missing offset samples with silence : Yes
Delete leading and trailing silent blocks : No
Null samples used in CRC calculations : Yes
Used interface : Native Win32 interface for Win NT & 2000

Used output format : Internal WAV Routines
Sample format : 44.100 Hz; 16 Bit; Stereo


TOC of the extracted CD

Track | Start | Length | Start sector | End sector
---------------------------------------------------------
1 | 0:00.00 | 4:14.62 | 0 | 19111
2 | 4:14.62 | 3:31.10 | 19112 | 34946
3 | 7:45.72 | 3:45.44 | 34947 | 51865
4 | 11:31.41 | 4:01.70 | 51866 | 70010
5 | 15:33.36 | 3:55.15 | 70011 | 87650
6 | 19:28.51 | 4:27.70 | 87651 | 107745
7 | 23:56.46 | 4:34.16 | 107746 | 128311
8 | 28:30.62 | 3:45.70 | 128312 | 145256
9 | 32:16.57 | 5:21.38 | 145257 | 169369
10 | 37:38.20 | 3:38.56 | 169370 | 185775
11 | 41:17.01 | 3:56.22 | 185776 | 203497
12 | 45:13.23 | 4:53.28 | 203498 | 225500
13 | 50:06.51 | 3:24.38 | 225501 | 240838
14 | 53:31.14 | 4:16.58 | 240839 | 260096
15 | 57:47.72 | 3:35.37 | 260097 | 276258


Range status and errors

Selected range

Filename C:\Downloads\Statetroopers\Statetrooper - Statetrooper.wav

Peak level 100.0 %
Extraction speed 5.3 X
Copy CRC F177E630
Copy OK

No errors occurred

End of status report



01. Shape Of Things To Come
02. Set Fire To The Night
03. Dreams Of The Faithful
04 Stand Me Up
05. Veni, Vidi, Vinci
06. Last Stop To Heaven
07. She Got The Look
08. Too Late
09. Armed And Ready
10 Juliet

TPT: 71:23


Line-up:
Bass, Vocals – Jeff Brown (5)
Drums – Bruce Bisland
Guitar, Vocals – Jeff Summers
Keyboards – Steve Glover (2)
Lead Guitar – Martin Bushell
Vocals – Gary Barden

_________________


Top
 Profile E-mail  
 
Display posts from previous:  Sort by  
Post new topic Reply to topic  [ 1 post ] 

All times are UTC + 3 hours


Who is online

Users browsing this forum: No registered users and 1 guest


You cannot post new topics in this forum
You cannot reply to topics in this forum
You cannot edit your posts in this forum
You cannot delete your posts in this forum
You cannot post attachments in this forum

Search for:
Яндекс.Метрика
Powered by phpBB © 2000, 2002, 2005, 2007 phpBB Group