\m/ 80's metal \m/

Информационно-аналитический форум "80 см пыли" (In Search We Trust) "У нас никто никуда не спешит"
Me For You - http://me-4u.com
It is currently 08 Apr 2020

All times are UTC + 3 hours

Spoiler
Chat - temporary registration for foreign users (please leave your application here)







Post new topic Reply to topic  [ 19 posts ] 
Author Message
 
PostPosted: 05 Nov 2018 
5-speed satisfactor
User avatar
Joined: 16 Feb 2009
Posts: 3854
Warnings: 1
Lоcаtion: New York, USA
Age: 42
Name: Leonid
Спасибо Роме из Парижу.

Берите, пока есть. Оформите...

https://wetransfer.com/downloads/3e8d2f ... 344/108a4b

_________________
Death rules! Metal to all who oppose!


Top
 Profile  
 
 
PostPosted: 05 Nov 2018 
Рарник и трушник
User avatar
Joined: 25 Dec 2009
Posts: 9099
Lоcаtion: Москва
Age: 54
Name: Виталий
:thanx: :thanx: :thanx:


Top
 Profile  
 
 
PostPosted: 05 Nov 2018 
Хиппей (support team)
User avatar
Joined: 30 Jul 2007
Posts: 118477
Lоcаtion: Киев (Kyiv, UA)
Age: 46
Name: Andrey
Danke schön :thanx:

mirror: Uloz l Drop l Narod l M-Cloud

log
Exact Audio Copy V1.3 from 2. September 2016

EAC extraction logfile from 4. November 2018, 23:58

SACRED OATH / A Crystal Vision

Used drive : TSSTcorpCDDVDW SH-224DB Adapter: 1 ID: 0

Read mode : Secure
Utilize accurate stream : Yes
Defeat audio cache : No
Make use of C2 pointers : No

Read offset correction : 6
Overread into Lead-In and Lead-Out : No
Fill up missing offset samples with silence : Yes
Delete leading and trailing silent blocks : No
Null samples used in CRC calculations : Yes
Used interface : Native Win32 interface for Win NT & 2000

Used output format : Internal WAV Routines
Sample format : 44.100 Hz; 16 Bit; Stereo


TOC of the extracted CD

Track | Start | Length | Start sector | End sector
---------------------------------------------------------
1 | 0:00.00 | 4:37.63 | 0 | 20837
2 | 4:37.63 | 4:48.62 | 20838 | 42499
3 | 9:26.50 | 3:42.30 | 42500 | 59179
4 | 13:09.05 | 2:18.53 | 59180 | 69582
5 | 15:27.58 | 5:46.67 | 69583 | 95599
6 | 21:14.50 | 4:12.28 | 95600 | 114527
7 | 25:27.03 | 5:00.40 | 114528 | 137067
8 | 30:27.43 | 4:04.17 | 137068 | 155384
9 | 34:31.60 | 2:53.48 | 155385 | 168407
10 | 37:25.33 | 5:20.40 | 168408 | 192447


Range status and errors

Selected range

Filename d:\Users\rom\Desktop\tmp\SACRED OATH - A Crystal Vision.wav

Peak level 100.0 %
Extraction speed 10.3 X
Range quality 100.0 %
Copy CRC DDA0CFAE
Copy OK

No errors occurred


AccurateRip summary

Track 1 accurately ripped (confidence 2) [9AB7199A] (AR v2)
Track 2 accurately ripped (confidence 2) [BE487432] (AR v2)
Track 3 accurately ripped (confidence 2) [27A4C4AC] (AR v2)
Track 4 accurately ripped (confidence 2) [671D15F9] (AR v2)
Track 5 accurately ripped (confidence 2) [D2BECBDF] (AR v2)
Track 6 accurately ripped (confidence 2) [58870B10] (AR v2)
Track 7 accurately ripped (confidence 2) [889B4486] (AR v2)
Track 8 accurately ripped (confidence 2) [73F5A5C7] (AR v2)
Track 9 accurately ripped (confidence 2) [3BD05CC3] (AR v2)
Track 10 accurately ripped (confidence 2) [1527738A] (AR v2)

All tracks accurately ripped

End of status report

---- CUETools DB Plugin V2.1.6

[CTDB TOCID: Y2ohuV_FgefZmvNhw8F_6YnbEH8-] found
Submit result: Y2ohuV_FgefZmvNhw8F_6YnbEH8- has been confirmed
Track | CTDB Status
1 | (2/2) Accurately ripped
2 | (2/2) Accurately ripped
3 | (2/2) Accurately ripped
4 | (2/2) Accurately ripped
5 | (2/2) Accurately ripped
6 | (2/2) Accurately ripped
7 | (2/2) Accurately ripped
8 | (2/2) Accurately ripped
9 | (2/2) Accurately ripped
10 | (2/2) Accurately ripped

cue
REM GENRE "Heavy Metal"
REM DATE 1987
REM DISCID 9C0A050A
REM COMMENT "ExactAudioCopy v1.3"
PERFORMER "SACRED OATH"
TITLE "A Crystal Vision"
REM COMPOSER ""
FILE "SACRED OATH - A Crystal Vision.wav" WAVE
TRACK 01 AUDIO
TITLE "Two Powers"
PERFORMER "SACRED OATH"
REM COMPOSER ""
INDEX 01 00:00:00
TRACK 02 AUDIO
TITLE "The Ferryman's Lair"
PERFORMER "SACRED OATH"
REM COMPOSER ""
INDEX 00 04:36:28
INDEX 01 04:37:63
TRACK 03 AUDIO
TITLE "Message to the Children"
PERFORMER "SACRED OATH"
REM COMPOSER ""
INDEX 01 09:26:50
TRACK 04 AUDIO
TITLE "Rising From the Grave"
PERFORMER "SACRED OATH"
REM COMPOSER ""
INDEX 01 13:09:05
TRACK 05 AUDIO
TITLE "The Beginning"
PERFORMER "SACRED OATH"
REM COMPOSER ""
INDEX 00 15:26:65
INDEX 01 15:27:58
TRACK 06 AUDIO
TITLE "Magick Son"
PERFORMER "SACRED OATH"
REM COMPOSER ""
INDEX 00 21:13:28
INDEX 01 21:14:50
TRACK 07 AUDIO
TITLE "Shadow Out of Time"
PERFORMER "SACRED OATH"
REM COMPOSER ""
INDEX 01 25:27:03
TRACK 08 AUDIO
TITLE "The Omen"
PERFORMER "SACRED OATH"
REM COMPOSER ""
INDEX 00 30:25:28
INDEX 01 30:27:43
TRACK 09 AUDIO
TITLE "A Crystal Vision"
PERFORMER "SACRED OATH"
REM COMPOSER ""
INDEX 00 34:30:28
INDEX 01 34:31:60
TRACK 10 AUDIO
TITLE "The Reign"
PERFORMER "SACRED OATH"
REM COMPOSER ""
INDEX 00 37:23:65
INDEX 01 37:25:33

_________________


Top
 Profile E-mail  
 
 
PostPosted: 05 Nov 2018 
А может смените мне статус?..
Joined: 03 Jul 2009
Posts: 897
Lоcаtion: Serbia
Name: Laki
:thanx: :thanx:


Top
 Profile E-mail  
 
 
PostPosted: 06 Nov 2018 
Работнечег
User avatar
Joined: 28 Aug 2007
Posts: 6197
Lоcаtion: г. Москва
Age: 31
Name: Дима
:thanx:


Top
 Profile E-mail  
 
 
PostPosted: 06 Nov 2018 
Хиппей (support team)
User avatar
Joined: 30 Jul 2007
Posts: 118477
Lоcаtion: Киев (Kyiv, UA)
Age: 46
Name: Andrey
Тьху, не знаю пока, за какой год это альбом, но он уныл и сер, сэры :( :( :(

4/10

Ну и записывались явно в какой-то андеграундной проговой студии? :cry:

_________________


Top
 Profile E-mail  
 
 
PostPosted: 06 Nov 2018 
Хиппей (support team)
User avatar
Joined: 30 Jul 2007
Posts: 118477
Lоcаtion: Киев (Kyiv, UA)
Age: 46
Name: Andrey
О как, оказалось, что это дебютник :arrow: https://www.metal-archives.com/albums/S ... ision/6990 :scratch: :scratch: :scratch:



Хм, а какая группа с похожим названием на дебютнике играла Death Metal, а затем ушла в павер? :scratch:

_________________


Top
 Profile E-mail  
 
 
PostPosted: 06 Nov 2018 
Анатолий
User avatar
Joined: 18 Oct 2008
Posts: 3783
Lоcаtion: Армавир
Age: 42
Name: Анатолий
Satan's Host подходят.


Top
 Profile E-mail  
 
 
PostPosted: 06 Nov 2018 
Хиппей (support team)
User avatar
Joined: 30 Jul 2007
Posts: 118477
Lоcаtion: Киев (Kyiv, UA)
Age: 46
Name: Andrey
Не-не, тоже какой Sacred.. Вроде

Толя, а тебе этот альбом данной вот группы понравился?
Чёт я полдня слушаю и никак не могу понять, за что его можно полюбить? :dash: :dash: :dash: :cry:

_________________


Top
 Profile E-mail  
 
 
PostPosted: 06 Nov 2018 
Хиппей (support team)
User avatar
Joined: 30 Jul 2007
Posts: 118477
Lоcаtion: Киев (Kyiv, UA)
Age: 46
Name: Andrey
Satan's Host подходят.

А разве "Обитель Сотоны" после забойного грубого трэша начала играть.. павер? :scratch:

_________________


Top
 Profile E-mail  
 
 
PostPosted: 06 Nov 2018 
спирт 100%
User avatar
Joined: 22 Sep 2008
Posts: 4527
Age: 48
Name: Саня
:thanx: Спасибо!


Top
 Profile  
 
 
PostPosted: 06 Nov 2018 
Анатолий
User avatar
Joined: 18 Oct 2008
Posts: 3783
Lоcаtion: Армавир
Age: 42
Name: Анатолий
Scatterbrain wrote:
Не-не, тоже какой Sacred.. Вроде


Ну тогда все дороги ведут в... Sacred Steel!!! :crazy:

Scatterbrain wrote:
Толя, а тебе этот альбом данной вот группы понравился?


Послушал только первую композицию. Музыка вполне. Вокал на любителя.


Top
 Profile E-mail  
 
 
PostPosted: 07 Nov 2018 
Хиппей (support team)
User avatar
Joined: 30 Jul 2007
Posts: 118477
Lоcаtion: Киев (Kyiv, UA)
Age: 46
Name: Andrey
Privateer wrote:
Ну тогда все дороги ведут в... Sacred Steel!!! :oops:

:crazy: :crazy: :crazy:

Ну нет =))
Это явно что-то из этой серии :arrow: https://www.metal-archives.com/bands/Ce ... _Oath/1263
Но не они.

Privateer wrote:
Послушал только первую композицию. Музыка вполне. Вокал на любителя.

Ага, мне вот интересно, осилишь ли ты вес альбом.. :scratch:

_________________


Top
 Profile E-mail  
 
 
PostPosted: 07 Nov 2018 
А может смените мне статус?..
User avatar
Joined: 24 Dec 2008
Posts: 654
Age: 46
Name: Дмитрий
Лёня, спасибо! :true:


Top
 Profile  
 
 
PostPosted: 08 Nov 2018 
Хиппей (support team)
User avatar
Joined: 30 Jul 2007
Posts: 118477
Lоcаtion: Киев (Kyiv, UA)
Age: 46
Name: Andrey
Не, как я не старался понять музыку группы, всё ж ни в какую щель она мне не пролезла.
Лишь две композиции из 10 более-менее понравились :(

_________________


Top
 Profile E-mail  
 
 
PostPosted: 08 Nov 2018 
5-speed satisfactor
User avatar
Joined: 16 Feb 2009
Posts: 3854
Warnings: 1
Lоcаtion: New York, USA
Age: 42
Name: Leonid
Вещица очень редкая. Ну очень редкая и именно поэтому стоящая, а не из-за содержания. Сам музон ничего. Неплохой. Но вокал, конечно, всё портит. Вокал напоминает стаю разбуженных посреди ночи волков с кастрированным вожаком.

_________________
Death rules! Metal to all who oppose!


Top
 Profile  
 
 
PostPosted: 08 Nov 2018 
Хиппей (support team)
User avatar
Joined: 30 Jul 2007
Posts: 118477
Lоcаtion: Киев (Kyiv, UA)
Age: 46
Name: Andrey
metaleonid wrote:
Вокал напоминает стаю разбуженных посреди ночи волков с кастрированным вожаком.

Такой же злой и бесполезный? :(

_________________


Top
 Profile E-mail  
 
 
PostPosted: 08 Nov 2018 
5-speed satisfactor
User avatar
Joined: 16 Feb 2009
Posts: 3854
Warnings: 1
Lоcаtion: New York, USA
Age: 42
Name: Leonid
Не знаю. Хочет но не может. А стая может, но им не положено. :benya: :crazy: Как-то так

_________________
Death rules! Metal to all who oppose!


Top
 Profile  
 
 
PostPosted: 08 Nov 2018 
Хиппей (support team)
User avatar
Joined: 30 Jul 2007
Posts: 118477
Lоcаtion: Киев (Kyiv, UA)
Age: 46
Name: Andrey
Так вот о том же. Без вожака никак :(

_________________


Top
 Profile E-mail  
 
Display posts from previous:  Sort by  
Post new topic Reply to topic  [ 19 posts ] 

All times are UTC + 3 hours


Who is online

Users browsing this forum: No registered users and 2 guests


You cannot post new topics in this forum
You cannot reply to topics in this forum
You cannot edit your posts in this forum
You cannot delete your posts in this forum
You cannot post attachments in this forum

Search for:
Яндекс.Метрика
Powered by phpBB © 2000, 2002, 2005, 2007 phpBB Group