\m/ 80's metal \m/

Информационно-аналитический форум "80 см пыли" (In Search We Trust) "У нас никто никуда не спешит"
Me For You - http://me-4u.com
It is currently 29 Mar 2020

All times are UTC + 3 hours

Spoiler
Chat - temporary registration for foreign users (please leave your application here)







Post new topic Reply to topic  [ 41 posts ]  Go to page Previous  1, 2, 3
Author Message
 
PostPosted: 13 Aug 2018 
дядя Миша
User avatar
Joined: 17 Oct 2008
Posts: 3266
Lоcаtion: USSR
Age: 57
Name: Khy
Stampede[1983-2018]Hurricane Town (Japan-UICY-78653)

Image

взять:
https://yadi.sk/d/O2u9TMM_3aAtkz

scans
Image

Image

Image

Image

Image

Image

Image


log
Exact Audio Copy V1.0 beta 6 from 9. April 2015

EAC extraction logfile from 2. August 2018, 11:04

Stampede / Hurricane Town

Used drive : Optiarc DVD RW AD-7243S Adapter: 2 ID: 0

Read mode : Secure
Utilize accurate stream : Yes
Defeat audio cache : Yes
Make use of C2 pointers : No

Read offset correction : 48
Overread into Lead-In and Lead-Out : No
Fill up missing offset samples with silence : Yes
Delete leading and trailing silent blocks : No
Null samples used in CRC calculations : Yes
Used interface : Installed external ASPI interface

Used output format : User Defined Encoder
Selected bitrate : 768 kBit/s
Quality : High
Add ID3 tag : No
Command line compressor : D:\Flac\flac-1.3.1-win\win64\flac.exe
Additional command line options : -V -8 -T "Date=%year%" -T "Genre=%genre%" %source%


TOC of the extracted CD

Track | Start | Length | Start sector | End sector
---------------------------------------------------------
1 | 0:00.00 | 4:13.41 | 0 | 19015
2 | 4:13.41 | 5:17.62 | 19016 | 42852
3 | 9:31.28 | 3:41.16 | 42853 | 59443
4 | 13:12.44 | 4:23.73 | 59444 | 79241
5 | 17:36.42 | 3:55.30 | 79242 | 96896
6 | 21:31.72 | 6:58.33 | 96897 | 128279
7 | 28:30.30 | 4:28.05 | 128280 | 148384
8 | 32:58.35 | 3:42.54 | 148385 | 165088
9 | 36:41.14 | 5:05.43 | 165089 | 188006
10 | 41:46.57 | 3:39.72 | 188007 | 204503
11 | 45:26.54 | 3:25.22 | 204504 | 219900
12 | 48:52.01 | 4:24.15 | 219901 | 239715
13 | 53:16.16 | 3:17.30 | 239716 | 254520


Range status and errors

Selected range

Filename D:\Varvaar r\Stampede[1983-2018]Hurricane Town (Japan-UICY-78653)\Stampede - Hurricane Town.wav

Peak level 99.8 %
Extraction speed 3.9 X
Range quality 100.0 %
Test CRC 690F476A
Copy CRC 690F476A
Copy OK

No errors occurred


AccurateRip summary

Track 1 accurately ripped (confidence 1) [763F093A] (AR v2)
Track 2 accurately ripped (confidence 1) [B7B0C6BF] (AR v2)
Track 3 accurately ripped (confidence 1) [58549C95] (AR v2)
Track 4 accurately ripped (confidence 1) [BAAF5378] (AR v2)
Track 5 accurately ripped (confidence 1) [58AAD351] (AR v2)
Track 6 accurately ripped (confidence 1) [BDEEA6B5] (AR v2)
Track 7 accurately ripped (confidence 1) [BB222CE0] (AR v2)
Track 8 accurately ripped (confidence 1) [9B356D42] (AR v2)
Track 9 accurately ripped (confidence 1) [7010C3F3] (AR v2)
Track 10 accurately ripped (confidence 1) [9F49230D] (AR v2)
Track 11 accurately ripped (confidence 1) [B9C1D274] (AR v2)
Track 12 accurately ripped (confidence 1) [2A459985] (AR v2)
Track 13 accurately ripped (confidence 1) [48986821] (AR v2)

All tracks accurately ripped

End of status report

==== Log checksum 3D3B2F91FD771B2A51B54709DA78A76F7E16DE1850975EF86931B24EF133DC8B ====

cue
REM GENRE "Hard Rock"
REM DATE 1983
REM DISCID BB0D410D
REM COMMENT "ExactAudioCopy v1.0b6"
PERFORMER "Stampede"
TITLE "Hurricane Town"
FILE "Stampede - Hurricane Town.Flac" WAVE
TRACK 01 AUDIO
TITLE "I've Been Told"
PERFORMER "Stampede"
INDEX 01 00:00:00
TRACK 02 AUDIO
TITLE "Love Letters"
PERFORMER "Stampede"
INDEX 00 04:09:67
INDEX 01 04:13:41
TRACK 03 AUDIO
TITLE "Casino Junkie"
PERFORMER "Stampede"
INDEX 00 09:26:58
INDEX 01 09:31:28
TRACK 04 AUDIO
TITLE "The Other Side"
PERFORMER "Stampede"
INDEX 00 13:11:28
INDEX 01 13:12:44
TRACK 05 AUDIO
TITLE "Turning In Circles"
PERFORMER "Stampede"
INDEX 00 17:32:28
INDEX 01 17:36:42
TRACK 06 AUDIO
TITLE "Hurricane Town"
PERFORMER "Stampede"
INDEX 00 21:31:07
INDEX 01 21:31:72
TRACK 07 AUDIO
TITLE "Girl"
PERFORMER "Stampede"
INDEX 00 28:27:19
INDEX 01 28:30:30
TRACK 08 AUDIO
TITLE "The Runner"
PERFORMER "Stampede"
INDEX 00 32:52:26
INDEX 01 32:58:35
TRACK 09 AUDIO
TITLE "Mexico"
PERFORMER "Stampede"
INDEX 00 36:39:41
INDEX 01 36:41:14
TRACK 10 AUDIO
TITLE "Midnight At The Moulin Rouge"
PERFORMER "Stampede"
INDEX 00 41:39:62
INDEX 01 41:46:57
TRACK 11 AUDIO
TITLE "Red Light Ruby"
PERFORMER "Stampede"
INDEX 00 45:24:22
INDEX 01 45:26:54
TRACK 12 AUDIO
TITLE "Mean Gasoline"
PERFORMER "Stampede"
INDEX 00 48:51:17
INDEX 01 48:52:01
TRACK 13 AUDIO
TITLE "Shoot Out The Lights"
PERFORMER "Stampede"
INDEX 00 53:14:31
INDEX 01 53:16:16


Last edited by Scatterbrain on 14 Aug 2018, edited 5 times in total.
Подправлено имя темы под шаблон и само сообщение


Top
 Profile  
 
 
PostPosted: 12 Jun 2019 
Пионэръ
Joined: 12 Aug 2009
Posts: 23
Name: Явор
Спасибо, дядя Миша :lob:


Top
 Profile E-mail  
 
Display posts from previous:  Sort by  
Post new topic Reply to topic  [ 41 posts ]  Go to page Previous  1, 2, 3

All times are UTC + 3 hours


Who is online

Users browsing this forum: No registered users and 3 guests


You cannot post new topics in this forum
You cannot reply to topics in this forum
You cannot edit your posts in this forum
You cannot delete your posts in this forum
You cannot post attachments in this forum

Search for:
Яндекс.Метрика
Powered by phpBB © 2000, 2002, 2005, 2007 phpBB Group