\m/ 80's metal \m/

Информационно-аналитический форум "80 см пыли" (In Search We Trust) "У нас никто никуда не спешит"
Me For You - http://me-4u.com
It is currently 17 Nov 2018

All times are UTC + 3 hours

Spoiler
Chat - temporary registration for foreign users (please leave your application here)







Post new topic Reply to topic  [ 9 posts ] 
Author Message
 
PostPosted: 05 Apr 2018 
5-speed satisfactor
User avatar
Joined: 16 Feb 2009
Posts: 3619
Lоcаtion: New York, USA
Age: 40
Name: Leonid
https://we.tl/ubLNZMHcxm

_________________
Death rules! Metal to all who oppose!


Top
 Profile  
 
 
PostPosted: 05 Apr 2018 
семерых одним ударом
Joined: 18 Aug 2007
Posts: 3771
Lоcаtion: Владивосток
Age: 43
Name: Николай Николаевич
о, спасибо!!


Top
 Profile  
 
 
PostPosted: 05 Apr 2018 
Хиппей (support team)
User avatar
Joined: 30 Jul 2007
Posts: 108092
Lоcаtion: Киев (Kyiv, UA)
Age: 45
Name: Andrey
:thanx:

mirror: Giga l Drop l M-Cloud l Narod


Скачал ешо с утра :kro:

Будет время - доофомлю позже. Или вдруг кто помогёт.

_________________


Top
 Profile E-mail  
 
 
PostPosted: 05 Apr 2018 
Персональный статус
User avatar
Joined: 11 May 2011
Posts: 416
Lоcаtion: Omsk
Age: 28
Name: Alexander
Image

Band: Satan
Album: Into The Future & Suspended Sentence
Year: 1987
Label: Steamhammer - SHCD 7003
Genre: NWOBHM
Country: West Germany
Band Country: United Kingdom
Format: Flac + Log + Cue / Tracks + Log + Cue
Size: 840Mb
Scans: Inside archive

Line-up:

Michael Jackson - Vocals (lead)
Russ Tippins - Guitars, Vocals (backing)
Steve Ramsey - Guitars, Vocals (backing)
Graeme English - Bass
Sean Taylor - Drums


Tracklist:
01. 92nd Symphony
02. Who Dies Wins
03. 11th Commandment
04. Suicidal Justice
05. Vandal
06. S.C.U.M.
07. Avalanche Of A Million Hearts
08. Calculated Execution
09. Key To Oblivion
10. Hear Evil, See Evil, Speak Evil
11. Fuck You
12. Ice Man

Total playing time 01:02:07

log
Code:
Exact Audio Copy V0.99 prebeta 5 from 4. May 2009

EAC extraction logfile from 14. December 2016, 23:27

Satan / Into The Future / Suspended Sentence

Used drive  : PLEXTOR DVDR   PX-760A   Adapter: 4  ID: 0

Read mode               : Secure
Utilize accurate stream : Yes
Defeat audio cache      : Yes
Make use of C2 pointers : No

Read offset correction                      : 30
Overread into Lead-In and Lead-Out          : Yes
Fill up missing offset samples with silence : Yes
Delete leading and trailing silent blocks   : No
Null samples used in CRC calculations       : No
Used interface                              : Installed external ASPI interface

Used output format : Internal WAV Routines
Sample format      : 44.100 Hz; 16 Bit; Stereo


TOC of the extracted CD

     Track |   Start  |  Length  | Start sector | End sector
    ---------------------------------------------------------
        1  |  0:00.00 |  1:32.35 |         0    |     6934   
        2  |  1:32.35 |  6:49.40 |      6935    |    37649   
        3  |  8:22.00 |  4:49.42 |     37650    |    59366   
        4  | 13:11.42 |  7:38.70 |     59367    |    93786   
        5  | 20:50.37 |  5:17.30 |     93787    |   117591   
        6  | 26:07.67 |  5:33.38 |    117592    |   142604   
        7  | 31:41.30 |  8:11.17 |    142605    |   179446   
        8  | 39:52.47 |  4:36.70 |    179447    |   200216   
        9  | 44:29.42 |  4:35.08 |    200217    |   220849   
       10  | 49:04.50 |  4:49.47 |    220850    |   242571   
       11  | 53:54.22 |  3:18.03 |    242572    |   257424   
       12  | 57:12.25 |  4:54.55 |    257425    |   279529   


Range status and errors

Selected range

     Filename C:\Shared\Satan\Into The Future + Suspended Sentence\Satan - Into The Future + Suspended Sentence.wav

     Peak level 100.0 %
     Range quality 99.9 %
     Copy CRC C5278554
     Copy OK

No errors occurred

End of status report


cue
Code:
REM GENRE "Heavy Metal"
REM DATE 1987
REM DISCID AA0E8F0C
REM COMMENT "ExactAudioCopy v0.99pb5"
REM COMMENT "ATTENTION: 20 frames (11760 samples) before the beginning. Set offset accordingly when burning. Or increase indexes by 20 frames."
PERFORMER "Satan"
TITLE "Into The Future / Suspended Sentence"
FILE "Satan - Into The Future + Suspended Sentence.wav" WAVE
  TRACK 01 AUDIO
    TITLE "92nd Symphony"
    PERFORMER "Satan"
    INDEX 01 00:00:00
  TRACK 02 AUDIO
    TITLE "Who Dies Wins"
    PERFORMER "Satan"
    INDEX 00 01:32:32
    INDEX 01 01:32:35
  TRACK 03 AUDIO
    TITLE "11th Commandment"
    PERFORMER "Satan"
    INDEX 00 08:19:65
    INDEX 01 08:22:00
  TRACK 04 AUDIO
    TITLE "Suicidal Justice"
    PERFORMER "Satan"
    INDEX 00 13:11:22
    INDEX 01 13:11:42
  TRACK 05 AUDIO
    TITLE "Vandal (Hostile Youth)"
    PERFORMER "Satan"
    INDEX 00 20:47:72
    INDEX 01 20:50:37
  TRACK 06 AUDIO
    TITLE "S.C.U.M. (Socially Condemned Undesirable Misfits)"
    PERFORMER "Satan"
    INDEX 00 26:07:33
    INDEX 01 26:07:67
  TRACK 07 AUDIO
    TITLE "Avalanche Of A Million Hearts"
    PERFORMER "Satan"
    INDEX 00 31:36:32
    INDEX 01 31:41:30
  TRACK 08 AUDIO
    TITLE "Calculated Execution (Driller Killer)"
    PERFORMER "Satan"
    INDEX 01 39:52:47
  TRACK 09 AUDIO
    TITLE "Key To Oblivion"
    PERFORMER "Satan"
    INDEX 00 44:25:40
    INDEX 01 44:29:42
  TRACK 10 AUDIO
    TITLE "Hear Evil, See Evil, Speak Evil"
    PERFORMER "Satan"
    INDEX 00 49:04:18
    INDEX 01 49:04:50
  TRACK 11 AUDIO
    TITLE "Fuck You"
    PERFORMER "Satan"
    INDEX 00 53:52:61
    INDEX 01 53:54:22
  TRACK 12 AUDIO
    TITLE "Ice Man"
    PERFORMER "Satan"
    INDEX 00 57:12:23
    INDEX 01 57:12:25



Спасибо Лёне :thanx: Рамси с Инглишем веников не вяжут :true:

_________________
Enigma, unholy, ungodly, commander of the regeneration
Insidious and caught, implored by disgrace
Inhumation... The burial of man
Confession... Unify all evil


Top
 Profile E-mail  
 
 
PostPosted: 05 Apr 2018 
5-speed satisfactor
User avatar
Joined: 16 Feb 2009
Posts: 3619
Lоcаtion: New York, USA
Age: 40
Name: Leonid
Вот бы еще японский первопресс первого достать. Кстати, а что за трек в конце Ice Man?

_________________
Death rules! Metal to all who oppose!


Top
 Profile  
 
 
PostPosted: 05 Apr 2018 
Персональный статус
User avatar
Joined: 11 May 2011
Posts: 416
Lоcаtion: Omsk
Age: 28
Name: Alexander
Кстати, а что за трек в конце Ice Man?

Приколюшка от группы :vic:
P.S. Указал страну как на заднике - West Germany, а сам диск-то в Америке печатали :pardon:

_________________
Enigma, unholy, ungodly, commander of the regeneration
Insidious and caught, implored by disgrace
Inhumation... The burial of man
Confession... Unify all evil


Top
 Profile E-mail  
 
 
PostPosted: 07 Apr 2018 
Хиппей (support team)
User avatar
Joined: 30 Jul 2007
Posts: 108092
Lоcаtion: Киев (Kyiv, UA)
Age: 45
Name: Andrey
Оба альбома забираю в топы.
Давно не слушал их. С тех пор мнение не поменялось - шедеврально однозначно. А сейчас, почему-то, у меня прошла здесь ассоциация с.. Mekong Delta :scratch:

8/10

_________________


Top
 Profile E-mail  
 
 
PostPosted: 07 Apr 2018 
А может смените мне статус?..
Joined: 03 Jul 2009
Posts: 801
Lоcаtion: Serbia
Name: Laki
:thanx:


Top
 Profile E-mail  
 
 
PostPosted: 07 Apr 2018 
5-speed satisfactor
User avatar
Joined: 16 Feb 2009
Posts: 3619
Lоcаtion: New York, USA
Age: 40
Name: Leonid
Кстати, а что за трек в конце Ice Man?

Приколюшка от группы :vic:


Ну это какая-то известная песня. Какая?

_________________
Death rules! Metal to all who oppose!


Top
 Profile  
 
Display posts from previous:  Sort by  
Post new topic Reply to topic  [ 9 posts ] 

All times are UTC + 3 hours


Who is online

Users browsing this forum: No registered users and 4 guests


You cannot post new topics in this forum
You cannot reply to topics in this forum
You cannot edit your posts in this forum
You cannot delete your posts in this forum
You cannot post attachments in this forum

Search for:
Яндекс.Метрика
cron
Powered by phpBB © 2000, 2002, 2005, 2007 phpBB Group