\m/ 80's metal \m/

Информационно-аналитический форум "80 см пыли" (In Search We Trust) "У нас никто никуда не спешит"
Me For You - http://me-4u.com
It is currently 23 Sep 2018

All times are UTC + 3 hours

Spoiler
Chat - temporary registration for foreign users (please leave your application here)







Post new topic Reply to topic  [ 19 posts ] 
Author Message
 
PostPosted: 03 Apr 2018 
5-speed satisfactor
User avatar
Joined: 16 Feb 2009
Posts: 3556
Lоcаtion: New York, USA
Age: 40
Name: Leonid
Оформите?

https://we.tl/AA2MchlM2o

_________________
Death rules! Metal to all who oppose!


Top
 Profile  
 
 
PostPosted: 03 Apr 2018 
Персональный статус
User avatar
Joined: 11 May 2011
Posts: 416
Lоcаtion: Omsk
Age: 28
Name: Alexander
Image

Band: Sacrifice
Album: Torment In Fire
Year: 1985
Label: Fringe Product - FPD3020
Genre: Thrash Metal
Country: Canada
Format: Flac + Log + Cue / Tracks + Log + Cue
Size: 512Mb
Scans: Inside archive

Line-up:

Rob Urbinati - Vocals (lead), Guitars
Joe Rico - Guitars
Scott Watts - Bass, Vocals (backing)
Gus Pynn - Drums


Tracklist:
01. The Awakening
02. Sacrifice
03. Turn In Your Grave
04. Homicidal Breath
05. Warrior Of Death
06. Infernal Visions
07. Burned At The Stake
08. Necronomicon
09. The Exorcism
10. Possession
11. Decapitation
12. Beyond Death

Total playing time 36:32

log
Code:
Exact Audio Copy V0.99 prebeta 5 from 4. May 2009

EAC extraction logfile from 18. August 2015, 23:58

Sacrifice / Torment In Fire

Used drive  : PLEXTOR DVDR   PX-760A   Adapter: 4  ID: 0

Read mode               : Secure
Utilize accurate stream : Yes
Defeat audio cache      : Yes
Make use of C2 pointers : No

Read offset correction                      : 30
Overread into Lead-In and Lead-Out          : Yes
Fill up missing offset samples with silence : Yes
Delete leading and trailing silent blocks   : No
Null samples used in CRC calculations       : No
Used interface                              : Installed external ASPI interface

Used output format : Internal WAV Routines
Sample format      : 44.100 Hz; 16 Bit; Stereo


TOC of the extracted CD

     Track |   Start  |  Length  | Start sector | End sector
    ---------------------------------------------------------
        1  |  0:00.33 |  1:34.40 |        33    |     7122   
        2  |  1:34.73 |  3:10.10 |      7123    |    21382   
        3  |  4:45.08 |  3:54.35 |     21383    |    38967   
        4  |  8:39.43 |  2:54.60 |     38968    |    52077   
        5  | 11:34.28 |  3:07.67 |     52078    |    66169   
        6  | 14:42.20 |  2:37.25 |     66170    |    77969   
        7  | 17:19.45 |  4:41.53 |     77970    |    99097   
        8  | 22:01.23 |  2:34.35 |     99098    |   110682   
        9  | 24:35.58 |  2:53.72 |    110683    |   123729   
       10  | 27:29.55 |  1:52.48 |    123730    |   132177   
       11  | 29:22.28 |  1:34.22 |    132178    |   139249   
       12  | 30:56.50 |  5:34.38 |    139250    |   164337   


Range status and errors

Selected range

     Filename C:\Music\Sacrifice\Torment In Fire\Sacrifice - Torment In Fire.wav

     Peak level 100.0 %
     Range quality 100.0 %
     Copy CRC 1FD89110
     Copy OK

No errors occurred

End of status report

cue
Code:
REM GENRE "Thrash Metal"
REM DATE 1985
REM DISCID AA088F0C
REM COMMENT "Attention! 11790 samples before the beginning."
REM COMMENT "ExactAudioCopy v0.99pb5"
PERFORMER "Sacrifice"
TITLE "Torment In Fire"
FILE "Sacrifice - Torment In Fire.wav" WAVE
  TRACK 01 AUDIO
    TITLE "The Awakening"
    PERFORMER "Sacrifice"
    FLAGS PRE
    INDEX 00 00:00:00
    INDEX 01 00:00:33
  TRACK 02 AUDIO
    TITLE "Sacrifice"
    PERFORMER "Sacrifice"
    FLAGS PRE
    INDEX 01 01:34:73
  TRACK 03 AUDIO
    TITLE "Turn In Your Grave"
    PERFORMER "Sacrifice"
    FLAGS PRE
    INDEX 01 04:45:08
  TRACK 04 AUDIO
    TITLE "Homicidal Breath"
    PERFORMER "Sacrifice"
    FLAGS PRE
    INDEX 00 08:39:15
    INDEX 01 08:39:43
  TRACK 05 AUDIO
    TITLE "Warrior Of Death"
    PERFORMER "Sacrifice"
    FLAGS PRE
    INDEX 01 11:34:28
  TRACK 06 AUDIO
    TITLE "Infernal Visions"
    PERFORMER "Sacrifice"
    FLAGS PRE
    INDEX 00 14:40:38
    INDEX 01 14:42:20
  TRACK 07 AUDIO
    TITLE "Burned At The Stake"
    PERFORMER "Sacrifice"
    FLAGS PRE
    INDEX 00 17:14:05
    INDEX 01 17:19:45
  TRACK 08 AUDIO
    TITLE "Necronomicon"
    PERFORMER "Sacrifice"
    FLAGS PRE
    INDEX 01 22:01:23
  TRACK 09 AUDIO
    TITLE "The Exorcism"
    PERFORMER "Sacrifice"
    FLAGS PRE
    INDEX 01 24:35:58
  TRACK 10 AUDIO
    TITLE "Possession"
    PERFORMER "Sacrifice"
    FLAGS PRE
    INDEX 01 27:29:55
  TRACK 11 AUDIO
    TITLE "Decapitation"
    PERFORMER "Sacrifice"
    FLAGS PRE
    INDEX 01 29:22:28
  TRACK 12 AUDIO
    TITLE "Beyond Death"
    PERFORMER "Sacrifice"
    FLAGS PRE
    INDEX 01 30:56:50


Очередное спасибо Лёне :thanx:

_________________
Enigma, unholy, ungodly, commander of the regeneration
Insidious and caught, implored by disgrace
Inhumation... The burial of man
Confession... Unify all evil


Top
 Profile E-mail  
 
 
PostPosted: 03 Apr 2018 
5-speed satisfactor
User avatar
Joined: 16 Feb 2009
Posts: 3556
Lоcаtion: New York, USA
Age: 40
Name: Leonid
Распилинные треки уже с deemphasis. Распилил треки, потом прогнал через sox.exe С флагом deemph.

_________________
Death rules! Metal to all who oppose!


Last edited by metaleonid on 03 Apr 2018, edited 1 time in total.

Top
 Profile  
 
 
PostPosted: 03 Apr 2018 
Хиппей (support team)
User avatar
Joined: 30 Jul 2007
Posts: 106499
Lоcаtion: Киев (Kyiv, UA)
Age: 45
Name: Andrey
:thanx:

mirror: Giga l Drop l Narod l M-Cloud

_________________


Top
 Profile E-mail  
 
 
PostPosted: 04 Apr 2018 
Персональный статус
User avatar
Joined: 11 May 2011
Posts: 416
Lоcаtion: Omsk
Age: 28
Name: Alexander
На пятом треке на 1:54 косячок небольшой.
| +
Кстати встречал подобное на треке I Live You Die флотсэмовском с альбома No Place For Disgrace, скачивал его с MMT. Как же я потом удивился, когда рутрекеровский рип на том месте заиграл без запинки.

_________________
Enigma, unholy, ungodly, commander of the regeneration
Insidious and caught, implored by disgrace
Inhumation... The burial of man
Confession... Unify all evil


Top
 Profile E-mail  
 
 
PostPosted: 04 Apr 2018 
Хиппей (support team)
User avatar
Joined: 30 Jul 2007
Posts: 106499
Lоcаtion: Киев (Kyiv, UA)
Age: 45
Name: Andrey
Или косяк вылез с винила типа?

_________________


Top
 Profile E-mail  
 
 
PostPosted: 04 Apr 2018 
Персональный статус
User avatar
Joined: 11 May 2011
Posts: 416
Lоcаtion: Omsk
Age: 28
Name: Alexander
Разве диск с винила делали? Да и похоже больше на зажёванную плёнку.

_________________
Enigma, unholy, ungodly, commander of the regeneration
Insidious and caught, implored by disgrace
Inhumation... The burial of man
Confession... Unify all evil


Top
 Profile E-mail  
 
 
PostPosted: 04 Apr 2018 
Хиппей (support team)
User avatar
Joined: 30 Jul 2007
Posts: 106499
Lоcаtion: Киев (Kyiv, UA)
Age: 45
Name: Andrey
А-а, ну я ж пока не слушал. Просто спросил с чего косяк - с исходника или при рипы велез.
Послушаю щас тоже альбом.

_________________


Top
 Profile E-mail  
 
 
PostPosted: 05 Apr 2018 
5-speed satisfactor
User avatar
Joined: 16 Feb 2009
Posts: 3556
Lоcаtion: New York, USA
Age: 40
Name: Leonid
Я б хрен заметил, потому что у меня рабочие работают. Там такой, "строительный" звук. :benya: Здесь тоже самое только на 1:57. Мой рип идеален. А как цыд напечатали - это уже зоводской дефект.

Это не зажеванная пленка. Цифровой дефект. Я уже посмотрел в WAV.

_________________
Death rules! Metal to all who oppose!


Top
 Profile  
 
 
PostPosted: 05 Apr 2018 
Хиппей (support team)
User avatar
Joined: 30 Jul 2007
Posts: 106499
Lоcаtion: Киев (Kyiv, UA)
Age: 45
Name: Andrey
metaleonid wrote:
Это не зажеванная пленка. Цифровой дефект. Я уже посмотрел в WAV.

То есть, точно заводской косяк и нет больше официальных изданий без него? :thanx:

_________________


Top
 Profile E-mail  
 
 
PostPosted: 05 Apr 2018 
5-speed satisfactor
User avatar
Joined: 16 Feb 2009
Posts: 3556
Lоcаtion: New York, USA
Age: 40
Name: Leonid
Я не знаю, что на ютюбе (см. выше). Но там тоже самое.

_________________
Death rules! Metal to all who oppose!


Top
 Profile  
 
 
PostPosted: 05 Apr 2018 
Хиппей (support team)
User avatar
Joined: 30 Jul 2007
Posts: 106499
Lоcаtion: Киев (Kyiv, UA)
Age: 45
Name: Andrey
Scatterbrain wrote:
Послушаю щас тоже альбом.

Переносится на неопределённое время... :oops:

_________________


Top
 Profile E-mail  
 
 
PostPosted: 19 Apr 2018 
Хиппей (support team)
User avatar
Joined: 30 Jul 2007
Posts: 106499
Lоcаtion: Киев (Kyiv, UA)
Age: 45
Name: Andrey
Schmelzer wrote:
На пятом треке на 1:54 косячок небольшой.

Хм, я думал, что это чихнул вокалист или рыкнул так :scratch:
Тем более в финале трэка он отрыгнул малость.

_________________


Top
 Profile E-mail  
 
 
PostPosted: 19 Apr 2018 
Хиппей (support team)
User avatar
Joined: 30 Jul 2007
Posts: 106499
Lоcаtion: Киев (Kyiv, UA)
Age: 45
Name: Andrey
По альбому чуть..
По "старой памяти" помню, что это скоростной трэшак, вылезший из хардкорной среды.
Так вот, хардкоровые композиции (а их всего две в начале и парочка в середине), понравились - выделяются как раз структурой и вокалом. То трэшэвые звучат слишком уж ровно, хоть и громко и типа мрачновато, но одинаково и как-то .. в общем, снова нет разнообразия и хитовости :(

6++/10

Альбом слушал и через колонки вечером и ночью сонный в наушниках, но не заметил его. Кабы не замечание Александра здесь выше, так бы и пропустил.

Так шо бум делать - был этот "косяк" и на ранних изданиях? Вносить его в косячную тему? :slo:

_________________


Top
 Profile E-mail  
 
 
PostPosted: 19 Apr 2018 
Хиппей (support team)
User avatar
Joined: 30 Jul 2007
Posts: 106499
Lоcаtion: Киев (Kyiv, UA)
Age: 45
Name: Andrey
А чего не трекер рип не запердолили? :arrow: https://rutracker.org/forum/search.php? ... 0In%20Fire :vic:

Image

Или я не так ищу?

_________________


Top
 Profile E-mail  
 
 
PostPosted: 21 Apr 2018 
5-speed satisfactor
User avatar
Joined: 16 Feb 2009
Posts: 3556
Lоcаtion: New York, USA
Age: 40
Name: Leonid
А чего не трекер рип не запердолили? :arrow: https://rutracker.org/forum/search.php? ... 0In%20Fire :vic:

Image

Или я не так ищу?


Я не умею

_________________
Death rules! Metal to all who oppose!


Top
 Profile  
 
 
PostPosted: 21 Apr 2018 
Хиппей (support team)
User avatar
Joined: 30 Jul 2007
Posts: 106499
Lоcаtion: Киев (Kyiv, UA)
Age: 45
Name: Andrey
А у меня вообще жёпо :ok: рукость развита до мерзости

_________________


Top
 Profile E-mail  
 
 
PostPosted: 21 Apr 2018 
А может смените мне статус?..
Joined: 03 Jul 2009
Posts: 786
Lоcаtion: Serbia
Name: Laki
:thanx: :thanx:

Gosha's post of the album is bootleg done form the remastered cd and it's crap.


Top
 Profile E-mail  
 
 
PostPosted: 21 Apr 2018 
Хиппей (support team)
User avatar
Joined: 30 Jul 2007
Posts: 106499
Lоcаtion: Киев (Kyiv, UA)
Age: 45
Name: Andrey
Вас из Гоша?

_________________


Top
 Profile E-mail  
 
Display posts from previous:  Sort by  
Post new topic Reply to topic  [ 19 posts ] 

All times are UTC + 3 hours


Who is online

Users browsing this forum: No registered users and 1 guest


You cannot post new topics in this forum
You cannot reply to topics in this forum
You cannot edit your posts in this forum
You cannot delete your posts in this forum
You cannot post attachments in this forum

Search for:
Яндекс.Метрика
Powered by phpBB © 2000, 2002, 2005, 2007 phpBB Group