\m/ 80's metal \m/

Информационно-аналитический форум "80 см пыли" (In Search We Trust) "У нас никто никуда не спешит"
Me For You - http://me-4u.com
It is currently 23 Sep 2018

All times are UTC + 3 hours

Spoiler
Chat - temporary registration for foreign users (please leave your application here)







Post new topic Reply to topic  [ 52 posts ]  Go to page Previous  1, 2, 3  Next
Author Message
 
PostPosted: 04 Dec 2017 
Я набрал 1000 сообщений!
Joined: 24 Oct 2009
Posts: 2033
Lоcаtion: Оренбург
Age: 55
Name: Юра
На мешке за японца 70 зелёных просють... :oops:

_________________
:dash: I am happy!


Top
 Profile E-mail  
 
 
PostPosted: 04 Dec 2017 
Хиппей (support team)
User avatar
Joined: 30 Jul 2007
Posts: 106473
Lоcаtion: Киев (Kyiv, UA)
Age: 45
Name: Andrey
Юр, за диск, или за винилку?

Вообще альбом издавался на CD?

ps. Перечитал про "японца" и переиначу вопрос - на виниле альбом издавался вообще? =)

_________________


Top
 Profile E-mail  
 
 
PostPosted: 04 Dec 2017 
Хиппей (support team)
User avatar
Joined: 30 Jul 2007
Posts: 106473
Lоcаtion: Киев (Kyiv, UA)
Age: 45
Name: Andrey
На Ютубе у него минимум 5 каналов, так шо пишем на все :crazy:
И главное - грамотно http://prntscr.com/hisdno


Image

Ага, тогда и тута переиначу вопрос, спрошу про диск.
Хотя, по ходу, он уже под шконку заполз от осознания, что что-то надо дигитализировать :lloo:

_________________


Top
 Profile E-mail  
 
 
PostPosted: 05 Dec 2017 
Я набрал 1000 сообщений!
Joined: 24 Oct 2009
Posts: 2033
Lоcаtion: Оренбург
Age: 55
Name: Юра
Scatterbrain wrote:
Юр, за диск, или за винилку?

CD-шка...

_________________
:dash: I am happy!


Top
 Profile E-mail  
 
 
PostPosted: 05 Dec 2017 
Рарник и трушник
User avatar
Joined: 25 Dec 2009
Posts: 8063
Lоcаtion: Москва
Age: 53
Name: Виталий
uriyy wrote:
На мешке за японца 70 зелёных просють...

На дискогсе гораздо дешевле можно срубить. :pardon:


Top
 Profile  
 
 
PostPosted: 05 Dec 2017 
Хиппей (support team)
User avatar
Joined: 30 Jul 2007
Posts: 106473
Lоcаtion: Киев (Kyiv, UA)
Age: 45
Name: Andrey
Ага, за четвертной билет долларовый мона взять.
Но это ж не наш метод.
Тем более, группа такое себе.

Будем просить у владельцев дисков сделать рип, да Серёг?

_________________


Top
 Profile E-mail  
 
 
PostPosted: 05 Dec 2017 
Я набрал 1000 сообщений!
Joined: 21 Nov 2009
Posts: 1394
Lоcаtion: praga
Age: 48
Name: Сергей
Конечно. :pardon:


Top
 Profile E-mail  
 
 
PostPosted: 05 Dec 2017 
Хиппей (support team)
User avatar
Joined: 30 Jul 2007
Posts: 106473
Lоcаtion: Киев (Kyiv, UA)
Age: 45
Name: Andrey
Ну так шевелимся, шевелимся. Пишем прям по порядку списка тем продавцам и сообщаем на форум, кто отказался (зайка серенький), а кто вдруг и рипнет диск то, а затем его же и спокойно продаст дальше.

_________________


Top
 Profile E-mail  
 
 
PostPosted: 05 Dec 2017 
Я набрал 1000 сообщений!
Joined: 24 Oct 2009
Posts: 2033
Lоcаtion: Оренбург
Age: 55
Name: Юра
sin2 wrote:
Лэйбл: D&S records / Semaphore

А что, принципиально нужен этот издатель? :smile:

_________________
:dash: I am happy!


Top
 Profile E-mail  
 
 
PostPosted: 05 Dec 2017 
Я набрал 1000 сообщений!
Joined: 21 Nov 2009
Posts: 1394
Lоcаtion: praga
Age: 48
Name: Сергей
:pardon: Да он вроде вышел,тока на этом издании.


Top
 Profile E-mail  
 
 
PostPosted: 05 Dec 2017 
Я набрал 1000 сообщений!
Joined: 24 Oct 2009
Posts: 2033
Lоcаtion: Оренбург
Age: 55
Name: Юра
Сергей, у меня есть какой то лось, но он без сканов. Так что я хрен его знает, чьё производство... :pardon:

_________________
:dash: I am happy!


Top
 Profile E-mail  
 
 
PostPosted: 06 Dec 2017 
Хиппей (support team)
User avatar
Joined: 30 Jul 2007
Posts: 106473
Lоcаtion: Киев (Kyiv, UA)
Age: 45
Name: Andrey
О.. :pavlik:

_________________


Top
 Profile E-mail  
 
 
PostPosted: 06 Dec 2017 
Я набрал 1000 сообщений!
Joined: 21 Nov 2009
Posts: 1394
Lоcаtion: praga
Age: 48
Name: Сергей
Да конечно можно без сканов!Отлично. :thanx: :dance: :true:
Image


Top
 Profile E-mail  
 
 
PostPosted: 06 Dec 2017 
Я набрал 1000 сообщений!
Joined: 24 Oct 2009
Posts: 2033
Lоcаtion: Оренбург
Age: 55
Name: Юра
Salvage - Salvage 1991

_________________
:dash: I am happy!


Top
 Profile E-mail  
 
 
PostPosted: 06 Dec 2017 
Хиппей (support team)
User avatar
Joined: 30 Jul 2007
Posts: 106473
Lоcаtion: Киев (Kyiv, UA)
Age: 45
Name: Andrey
:thanx:

mirror: Depos l Narod l M-Cloud l Drop

log
Exact Audio Copy V0.99 prebeta 5 from 4. May 2009

EAC extraction logfile from 1. September 2012, 23:55

Salvage / Salvage [XRCN-1064]

Used drive : TSSTcorpCDDVDW TS-L633J Adapter: 0 ID: 1

Read mode : Secure
Utilize accurate stream : Yes
Defeat audio cache : Yes
Make use of C2 pointers : No

Read offset correction : 6
Overread into Lead-In and Lead-Out : No
Fill up missing offset samples with silence : Yes
Delete leading and trailing silent blocks : No
Null samples used in CRC calculations : Yes
Used interface : Installed external ASPI interface

Used output format : Internal WAV Routines
Sample format : 44.100 Hz; 16 Bit; Stereo


TOC of the extracted CD

Track | Start | Length | Start sector | End sector
---------------------------------------------------------
1 | 0:00.00 | 3:40.10 | 0 | 16509
2 | 3:40.10 | 4:13.15 | 16510 | 35499
3 | 7:53.25 | 4:44.22 | 35500 | 56821
4 | 12:37.47 | 5:36.03 | 56822 | 82024
5 | 18:13.50 | 4:11.20 | 82025 | 100869
6 | 22:24.70 | 4:18.40 | 100870 | 120259
7 | 26:43.35 | 4:13.62 | 120260 | 139296
8 | 30:57.22 | 4:11.10 | 139297 | 158131
9 | 35:08.32 | 3:42.33 | 158132 | 174814
10 | 38:50.65 | 4:43.10 | 174815 | 196049


Range status and errors

Selected range

Filename D:\Uploads\CAMMARD\Salvage - Salvage [XRCN-1064].wav

Peak level 100.0 %
Range quality 99.9 %
Copy CRC 4F817196
Copy OK

No errors occurred


AccurateRip summary

Track 1 not present in database
Track 2 not present in database
Track 3 not present in database
Track 4 not present in database
Track 5 not present in database
Track 6 not present in database
Track 7 not present in database
Track 8 not present in database
Track 9 not present in database
Track 10 not present in database

None of the tracks are present in the AccurateRip database

End of status report

cue
REM GENRE "Heavy Metal"
REM DATE 1991
REM DISCID 7B0A360A
REM COMMENT "ExactAudioCopy v0.99pb5"
PERFORMER "Salvage"
TITLE "Salvage [XRCN-1064]"
FILE "Salvage - Salvage [XRCN-1064].flac" WAVE
TRACK 01 AUDIO
TITLE "Nowhere To Run"
PERFORMER "Salvage"
INDEX 01 00:00:00
TRACK 02 AUDIO
TITLE "Tonight (Is Never Enough)"
PERFORMER "Salvage"
INDEX 00 03:39:00
INDEX 01 03:40:10
TRACK 03 AUDIO
TITLE "Don't Cross The Line"
PERFORMER "Salvage"
INDEX 00 07:51:05
INDEX 01 07:53:25
TRACK 04 AUDIO
TITLE "Battlefields"
PERFORMER "Salvage"
INDEX 00 12:35:62
INDEX 01 12:37:47
TRACK 05 AUDIO
TITLE "No Time To Lose"
PERFORMER "Salvage"
INDEX 00 18:11:45
INDEX 01 18:13:50
TRACK 06 AUDIO
TITLE "In My Heart"
PERFORMER "Salvage"
INDEX 00 22:21:65
INDEX 01 22:24:70
TRACK 07 AUDIO
TITLE "Race Of No Return"
PERFORMER "Salvage"
INDEX 00 26:38:55
INDEX 01 26:43:35
TRACK 08 AUDIO
TITLE "Call Me"
PERFORMER "Salvage"
INDEX 00 30:54:60
INDEX 01 30:57:22
TRACK 09 AUDIO
TITLE "Gates Of Hell"
PERFORMER "Salvage"
INDEX 00 35:03:65
INDEX 01 35:08:32
TRACK 10 AUDIO
TITLE "Hold On"
PERFORMER "Salvage"
INDEX 00 38:47:17
INDEX 01 38:50:65

_________________


Top
 Profile E-mail  
 
 
PostPosted: 06 Dec 2017 
Анатолий
User avatar
Joined: 18 Oct 2008
Posts: 3119
Lоcаtion: Армавир
Age: 41
Name: Анатолий
Спасибо!!! :thanx: :true:


Top
 Profile E-mail  
 
 
PostPosted: 06 Dec 2017 
Хиппей (support team)
User avatar
Joined: 30 Jul 2007
Posts: 106473
Lоcаtion: Киев (Kyiv, UA)
Age: 45
Name: Andrey
Эх, хорош звук, однако :meloman: :lob: :lob: :lob:

_________________


Top
 Profile E-mail  
 
 
PostPosted: 06 Dec 2017 
Хиппей (support team)
User avatar
Joined: 30 Jul 2007
Posts: 106473
Lоcаtion: Киев (Kyiv, UA)
Age: 45
Name: Andrey
Image

Явно запрос закрыт? :kro:

_________________


Top
 Profile E-mail  
 
 
PostPosted: 06 Dec 2017 
Прокъмитолист
User avatar
Joined: 12 Aug 2007
Posts: 6472
Lоcаtion: Санктъ-Петербуркъ
Age: 50
Name: Олекъ
:thanx:

_________________
прокъметол - это музыко, от которово есть прок (ы)


Top
 Profile  
 
 
PostPosted: 06 Dec 2017 
Я набрал 1000 сообщений!
Joined: 24 Oct 2009
Posts: 2033
Lоcаtion: Оренбург
Age: 55
Name: Юра
:thanx:

_________________
:dash: I am happy!


Top
 Profile E-mail  
 
Display posts from previous:  Sort by  
Post new topic Reply to topic  [ 52 posts ]  Go to page Previous  1, 2, 3  Next

All times are UTC + 3 hours


Who is online

Users browsing this forum: No registered users and 2 guests


You cannot post new topics in this forum
You cannot reply to topics in this forum
You cannot edit your posts in this forum
You cannot delete your posts in this forum
You cannot post attachments in this forum

Search for:
Яндекс.Метрика
Powered by phpBB © 2000, 2002, 2005, 2007 phpBB Group