\m/ 80's metal \m/

Информационно-аналитический форум "80 см пыли" (In Search We Trust) "У нас никто никуда не спешит"
Железнодорожная биржа - RailAgent
It is currently 22 Jul 2018

All times are UTC + 3 hours

Spoiler
Chat - temporary registration for foreign users (please leave your application here)







Post new topic Reply to topic  [ 5 posts ] 
Author Message
 
PostPosted: 03 Jun 2016 
Генеральный thrasher
User avatar
Joined: 03 Oct 2008
Posts: 3408
Lоcаtion: Ханты-Мансийский АО
Age: 43
Name: Сергей
Ещё итальянцы.Думаю,что Олегу spiralarch и Димке dr_rockter должен понравиться данный бэнд.Серёге splatty не предлагаю. :smile:

Image

Year:2012
Style:Power/Thrash Metal
Country:Italy
Archive:Flac+Cue+Log+Scans
Size:309Mb
Source:my CD
Label:Self-Release

Line-Up:
Paolo Spadini - bass
Marco Cioni - drums
Matteo Osservanti - guitars
Antonio Bosi - vocals
Alessandro Acquisti - guitars

Tracklist:
01. Evil Cure 05:29
02. Just Alive 04:56
03. I Feel 04:03
04. We Won't Fall 04:22
05. B.F.F. 04:09
06. I Hate Liars, I Hate You 04:41
07. Shine 03:35
08. Stay Out 04:36
09. For All You Left Behind 04:45
10. Go Away 04:41

"Cue"
REM GENRE "Power/Thrash Metal"
REM DATE 2012
REM DISCID 8D0A970A
REM COMMENT "ExactAudioCopy v1.1"
PERFORMER "Sinflower"
TITLE "Evil Cure"
FILE "Sinflower - Evil Cure.flac" WAVE
TRACK 01 AUDIO
TITLE "Evil Cure"
PERFORMER "Sinflower"
INDEX 01 00:00:00
TRACK 02 AUDIO
TITLE "Just Alive"
PERFORMER "Sinflower"
INDEX 01 05:28:11
TRACK 03 AUDIO
TITLE "I Feel"
PERFORMER "Sinflower"
INDEX 01 10:23:67
TRACK 04 AUDIO
TITLE "We Won't Fall"
PERFORMER "Sinflower"
INDEX 01 14:26:06
TRACK 05 AUDIO
TITLE "B.F.F."
PERFORMER "Sinflower"
INDEX 01 18:47:49
TRACK 06 AUDIO
TITLE "I Hate Liars, I Hate You"
PERFORMER "Sinflower"
INDEX 01 22:56:38
TRACK 07 AUDIO
TITLE "Shine"
PERFORMER "Sinflower"
INDEX 01 27:36:63
TRACK 08 AUDIO
TITLE "Stay Out"
PERFORMER "Sinflower"
INDEX 01 31:11:57
TRACK 09 AUDIO
TITLE "For All You Left Behind"
PERFORMER "Sinflower"
INDEX 01 35:46:59
TRACK 10 AUDIO
TITLE "Go Away"
PERFORMER "Sinflower"
INDEX 01 40:31:14

"Log"
Exact Audio Copy V1.1 from 23. June 2015

Отчёт EAC об извлечении, выполненном 19. мая 2016, 17:34

Sinflower / Evil Cure

Дисковод: HL-DT-STDVDRAM GTA0N Adapter: 1 ID: 0

Режим чтения : Достоверность
Использование точного потока : Да
Отключение кэша аудио : Да
Использование указателей C2 : Нет

Коррекция смещения при чтении : 102
Способность читать области Lead-in и Lead-out : Нет
Заполнение пропущенных сэмплов тишиной : Да
Удаление блоков с тишиной в начале и конце : Нет
При вычислениях CRC использовались нулевые сэмплы : Да
Интерфейс : Встроенный Win32-интерфейс для Win NT/2000

Выходной формат : Пользовательский кодировщик
Выбранный битрейт : 768 kBit/s
Качество : Высокий
Добавление ID3-тега : Нет
Утилита сжатия : C:\Program Files (x86)\Exact Audio Copy\FLAC\FLAC.EXE
Дополнительные параметры : -6 -V -T "ARTIST=%artist%" -T "TITLE=%title%" -T "ALBUM=%albumtitle%" -T "DATE=%year%" -T "TRACKNUMBER=%tracknr%" -T "GENRE=%genre%" -T "COMMENT=%comment%" -T "BAND=%albuminterpret%" -T "ALBUMARTIST=%albuminterpret%" -T "COMPOSER=%composer%" %haslyrics%--tag-from-file=LYRICS="%lyricsfile%"%haslyrics% -T "DISCNUMBER=%cdnumber%" -T "TOTALDISCS=%totalcds%" -T "TOTALTRACKS=%numtracks%" %hascover%--picture="%coverfile%"%hascover% %source% -o %dest%


TOC извлечённого CD

Трек | Старт | Длительность | Начальный сектор | Конечный сектор
---------------------------------------------------------------------
1 | 0:00.00 | 5:28.11 | 0 | 24610
2 | 5:28.11 | 4:55.56 | 24611 | 46791
3 | 10:23.67 | 4:02.14 | 46792 | 64955
4 | 14:26.06 | 4:21.43 | 64956 | 84573
5 | 18:47.49 | 4:08.64 | 84574 | 103237
6 | 22:56.38 | 4:40.25 | 103238 | 124262
7 | 27:36.63 | 3:34.69 | 124263 | 140381
8 | 31:11.57 | 4:35.02 | 140382 | 161008
9 | 35:46.59 | 4:44.30 | 161009 | 182338
10 | 40:31.14 | 4:40.03 | 182339 | 203341


Характеристики диапазона извлечения и сообщения об ошибках

Выбранный диапазон

Имя файла C:\Users\магазин\Music\Sinflower - Evil Cure.wav

Пиковый уровень 100.0 %
Скорость извлечения 3.9 X
Качество диапазона 100.0 %
CRC копии 8B8B8F15
Копирование... OK

Ошибок не произошло


AccurateRip: сводка

Трек 1 отсутствует в базе данных
Трек 2 отсутствует в базе данных
Трек 3 отсутствует в базе данных
Трек 4 отсутствует в базе данных
Трек 5 отсутствует в базе данных
Трек 6 отсутствует в базе данных
Трек 7 отсутствует в базе данных
Трек 8 отсутствует в базе данных
Трек 9 отсутствует в базе данных
Трек 10 отсутствует в базе данных

Ни одного трека нет в базе AccurateRip

Конец отчёта

---- CUETools DB Plugin V2.1.6

[CTDB TOCID: hym61YQ3D.hUH67w5QH0DU8pMZw-] disk not present in database
Submit result: hym61YQ3D.hUH67w5QH0DU8pMZw- has been uploaded


Evil Cure


Top
 Profile  
 
 
PostPosted: 03 Jun 2016 
Прокъмитолист
User avatar
Joined: 12 Aug 2007
Posts: 6421
Lоcаtion: Санктъ-Петербуркъ
Age: 50
Name: Олекъ
спасибо, Серёга! :thanx:

_________________
прокъметол - это музыко, от которово есть прок (ы)


Top
 Profile  
 
 
PostPosted: 03 Jun 2016 
Power Metal Maniac
User avatar
Joined: 09 Aug 2008
Posts: 6197
Lоcаtion: Москва
Age: 40
Name: Егор
здесь есть Павер - скачано :thanx:

_________________
Long Live Metal!


Last edited by EG Power on 20 Aug 2016, edited 1 time in total.

Top
 Profile  
 
 
PostPosted: 03 Jun 2016 
консэрваторъ
Joined: 11 Aug 2007
Posts: 15681
Lоcаtion: Псков
Age: 44
Name: Сергей
Есть павер, скачивать не нада... :thanx:

_________________
THRASH 'EM ALL


Top
 Profile E-mail  
 
 
PostPosted: 03 Jun 2016 
Генеральный thrasher
User avatar
Joined: 03 Oct 2008
Posts: 3408
Lоcаtion: Ханты-Мансийский АО
Age: 43
Name: Сергей
Есть павер, скачивать не нада... :thanx:

Ну а я о чём?
здесь есть Павер - тогда не забыть скачать :thanx:

Егор,я бы тебе порекомендовал ещё моего лося Firstrike заслушать...


Top
 Profile  
 
Display posts from previous:  Sort by  
Post new topic Reply to topic  [ 5 posts ] 

All times are UTC + 3 hours


Who is online

Users browsing this forum: No registered users and 5 guests


You cannot post new topics in this forum
You cannot reply to topics in this forum
You cannot edit your posts in this forum
You cannot delete your posts in this forum
You cannot post attachments in this forum

Search for:
Яндекс.Метрика
cron
Powered by phpBB © 2000, 2002, 2005, 2007 phpBB Group