\m/ 80's metal \m/

Информационно-аналитический форум "80 см пыли" (In Search We Trust) "У нас никто никуда не спешит"
Me For You - http://me-4u.com
It is currently 20 Nov 2018

All times are UTC + 3 hours

Spoiler
Chat - temporary registration for foreign users (please leave your application here)







Post new topic Reply to topic  [ 9 posts ] 
Author Message
 
PostPosted: 12 Mar 2016 
Генеральный thrasher
User avatar
Joined: 03 Oct 2008
Posts: 3507
Lоcаtion: Ханты-Мансийский АО
Age: 43
Name: Сергей
Image

Year:1990
Style:Thrash Metal
Country:Japan
Archive:Flac+Cue+Log+Scans
Size:323Mb
Source:my CD
Label:Howling Bull Records
Catalog ID:HBR-F0002

Line-Up:
Akira Sugiuchi - vocals
Hiroyuki Murakami - guitars
Tohru Nishida - bass
Shinji Tachi - drums

Tracklist:
01. Clumsy Life 05:27
02. Total Steel 05:44
03. Crucifixion 01:16
04. Dancing Death Valley 04:58
05. One Night King 06:02
06. Ins & Outs 05:05
07. Fight To Be Free 04:21
08. Don't Wanna Be Back In Black Days 05:19
09. Cold Storm 07:13

"Cue"
REM GENRE "Thrash Metal"
REM DATE 1990
REM DISCID 780AA309
REM COMMENT "ExactAudioCopy v1.1"
PERFORMER "Sacrifice"
TITLE "Total Steel"
FILE "Sacrifice - Total Steel.flac" WAVE
TRACK 01 AUDIO
TITLE "Clumsy Life"
PERFORMER "Sacrifice"
INDEX 01 00:00:00
TRACK 02 AUDIO
TITLE "Total Steel"
PERFORMER "Sacrifice"
INDEX 00 05:23:72
INDEX 01 05:27:00
TRACK 03 AUDIO
TITLE "Crucifixion"
PERFORMER "Sacrifice"
INDEX 00 11:07:62
INDEX 01 11:10:47
TRACK 04 AUDIO
TITLE "Dancing Death Valley"
PERFORMER "Sacrifice"
INDEX 01 12:26:32
TRACK 05 AUDIO
TITLE "One Night King"
PERFORMER "Sacrifice"
INDEX 00 17:21:52
INDEX 01 17:24:22
TRACK 06 AUDIO
TITLE "Ins and Outs"
PERFORMER "Sacrifice"
INDEX 00 23:24:22
INDEX 01 23:26:17
TRACK 07 AUDIO
TITLE "Fight To Be Free"
PERFORMER "Sacrifice"
INDEX 00 28:28:42
INDEX 01 28:30:72
TRACK 08 AUDIO
TITLE "Don't Wanna Be Back In Black Days"
PERFORMER "Sacrifice"
INDEX 00 32:48:70
INDEX 01 32:51:70
TRACK 09 AUDIO
TITLE "Cold Storm"
PERFORMER "Sacrifice"
INDEX 00 38:07:40
INDEX 01 38:10:35

"Log"
Exact Audio Copy V1.1 from 23. June 2015

Отчёт EAC об извлечении, выполненном 10. марта 2016, 9:33

Sacrifice / Total Steel

Дисковод: HL-DT-STDVDRAM GTA0N Adapter: 1 ID: 0

Режим чтения : Достоверность
Использование точного потока : Да
Отключение кэша аудио : Да
Использование указателей C2 : Нет

Коррекция смещения при чтении : 102
Способность читать области Lead-in и Lead-out : Нет
Заполнение пропущенных сэмплов тишиной : Да
Удаление блоков с тишиной в начале и конце : Нет
При вычислениях CRC использовались нулевые сэмплы : Да
Интерфейс : Встроенный Win32-интерфейс для Win NT/2000

Выходной формат : Пользовательский кодировщик
Выбранный битрейт : 768 kBit/s
Качество : Высокий
Добавление ID3-тега : Нет
Утилита сжатия : C:\Program Files (x86)\Exact Audio Copy\FLAC\FLAC.EXE
Дополнительные параметры : -6 -V -T "ARTIST=%artist%" -T "TITLE=%title%" -T "ALBUM=%albumtitle%" -T "DATE=%year%" -T "TRACKNUMBER=%tracknr%" -T "GENRE=%genre%" -T "COMMENT=%comment%" -T "BAND=%albuminterpret%" -T "ALBUMARTIST=%albuminterpret%" -T "COMPOSER=%composer%" %haslyrics%--tag-from-file=LYRICS="%lyricsfile%"%haslyrics% -T "DISCNUMBER=%cdnumber%" -T "TOTALDISCS=%totalcds%" -T "TOTALTRACKS=%numtracks%" %hascover%--picture="%coverfile%"%hascover% %source% -o %dest%


TOC извлечённого CD

Трек | Старт | Длительность | Начальный сектор | Конечный сектор
---------------------------------------------------------------------
1 | 0:00.00 | 5:27.00 | 0 | 24524
2 | 5:27.00 | 5:43.47 | 24525 | 50296
3 | 11:10.47 | 1:15.60 | 50297 | 55981
4 | 12:26.32 | 4:57.65 | 55982 | 78321
5 | 17:24.22 | 6:01.70 | 78322 | 105466
6 | 23:26.17 | 5:04.55 | 105467 | 128321
7 | 28:30.72 | 4:20.73 | 128322 | 147894
8 | 32:51.70 | 5:18.40 | 147895 | 171784
9 | 38:10.35 | 7:12.40 | 171785 | 204224


Характеристики диапазона извлечения и сообщения об ошибках

Выбранный диапазон

Имя файла C:\Users\магазин\Music\Sacrifice - Total Steel.wav

Пиковый уровень 100.0 %
Скорость извлечения 3.9 X
Качество диапазона 100.0 %
CRC копии D7E5428A
Копирование... OK

Ошибок не произошло


AccurateRip: сводка

Трек 1 отсутствует в базе данных
Трек 2 отсутствует в базе данных
Трек 3 отсутствует в базе данных
Трек 4 отсутствует в базе данных
Трек 5 отсутствует в базе данных
Трек 6 отсутствует в базе данных
Трек 7 отсутствует в базе данных
Трек 8 отсутствует в базе данных
Трек 9 отсутствует в базе данных

Ни одного трека нет в базе AccurateRip

Конец отчёта

---- CUETools DB Plugin V2.1.6

[CTDB TOCID: Sl87XRbj6uILc8LRS.JvSEvu9Co-] disk not present in database
Submit result: Sl87XRbj6uILc8LRS.JvSEvu9Co- has been uploaded


Total Steel


Top
 Profile  
 
 
PostPosted: 12 Mar 2016 
ТрэшЭрос
User avatar
Joined: 18 Jul 2011
Posts: 2300
Lоcаtion: Гулькевичи
Age: 43
Name: Александр
:thanx:

_________________
Thrash no trash!!!


Top
 Profile E-mail  
 
 
PostPosted: 12 Mar 2016 
Прокъмитолист
User avatar
Joined: 12 Aug 2007
Posts: 6504
Lоcаtion: Санктъ-Петербуркъ
Age: 51
Name: Олекъ
Серёга основательно затарился япончиками. спасибо! :thanx:

_________________
прокъметол - это музыко, от которово есть прок (ы)


Top
 Profile  
 
 
PostPosted: 12 Mar 2016 
Генеральный thrasher
User avatar
Joined: 03 Oct 2008
Posts: 3507
Lоcаtion: Ханты-Мансийский АО
Age: 43
Name: Сергей
Серёга основательно затарился япончиками.


Да где там основательно,Олег!Более менее только Outrage собрал.А вот Sacrifice и Shellshock не успел.Теперь всё дорого,а потому с покупками узкоглазых трэшеров пока покончено.


Top
 Profile  
 
 
PostPosted: 12 Mar 2016 
Хиппей (support team)
User avatar
Joined: 30 Jul 2007
Posts: 108205
Lоcаtion: Киев (Kyiv, UA)
Age: 45
Name: Andrey
:thanx:

mirror: iFolder l Narod l M-Cloud


Думал швейцарцы или канадцы, пока не прочитал внутри...

_________________


Top
 Profile E-mail  
 
 
PostPosted: 12 Mar 2016 
Хиппей (support team)
User avatar
Joined: 30 Jul 2007
Posts: 108205
Lоcаtion: Киев (Kyiv, UA)
Age: 45
Name: Andrey
Ух-ты! Вокалист петь научился за 3 года :lob: :lob: :lob:
Слушаю пока начало альбома...

_________________


Top
 Profile E-mail  
 
 
PostPosted: 13 Mar 2016 
Хиппей (support team)
User avatar
Joined: 30 Jul 2007
Posts: 108205
Lоcаtion: Киев (Kyiv, UA)
Age: 45
Name: Andrey
Ой, ну какой же милый альбом то :true: :true: :true:

6+/10

_________________


Top
 Profile E-mail  
 
 
PostPosted: 14 Mar 2016 
Генеральный thrasher
User avatar
Joined: 03 Oct 2008
Posts: 3507
Lоcаtion: Ханты-Мансийский АО
Age: 43
Name: Сергей
Ой, ну какой же милый альбом то :true: :true: :true:

6+/10


Серьёзно?! Ну и хорошо. :benya:


Top
 Profile  
 
 
PostPosted: 15 Mar 2016 
Alive Again
User avatar
Joined: 17 Dec 2008
Posts: 4740
Lоcаtion: Курск Воронеж Оскол
Age: 44
Name: Дмитрий
:thanx:


Top
 Profile E-mail  
 
Display posts from previous:  Sort by  
Post new topic Reply to topic  [ 9 posts ] 

All times are UTC + 3 hours


Who is online

Users browsing this forum: No registered users and 1 guest


You cannot post new topics in this forum
You cannot reply to topics in this forum
You cannot edit your posts in this forum
You cannot delete your posts in this forum
You cannot post attachments in this forum

Search for:
Яндекс.Метрика
Powered by phpBB © 2000, 2002, 2005, 2007 phpBB Group