\m/ 80's metal \m/

Информационно-аналитический форум "80 см пыли" (In Search We Trust) "У нас никто никуда не спешит"
Me For You - http://me-4u.com
It is currently 20 Sep 2018

All times are UTC + 3 hours

Spoiler
Chat - temporary registration for foreign users (please leave your application here)







Post new topic Reply to topic  [ 8 posts ] 
Author Message
 
PostPosted: 12 Mar 2016 
Генеральный thrasher
User avatar
Joined: 03 Oct 2008
Posts: 3445
Lоcаtion: Ханты-Мансийский АО
Age: 43
Name: Сергей
Image

Year:1987 (2010 Re-Issue)
Style:Thrash Metal
Country:Japan
Archive:Flac+Cue+Log+Scans
Size:360Mb
Source:my CD
Label:Explosion Works
Catalog ID:BTH-033

Line-Up:
Akira Sugiuchi - vocals
Masanori Kawakami - drums
Kazuo Nonaka - guitars
Takashi Yazaki - bass

Tracklist:
01. Friday Nightmare 05:23
02. Tank 04:07
03. Lucifer Smiles 03:44
04. Illusory Scene 01:45
05. Redrum 04:01
06. Destroy 03:55
07. Witch Hunt 06:35
08. Black Night 05:24
09. Warfare 06:01
10. Friday Nightmare [Demo Version] 05:12
11. Warfare [Demo Version] 05:20

"Cue"
REM GENRE "Thrash Metal"
REM DATE 1987
REM DISCID 9F0C0A0B
REM COMMENT "ExactAudioCopy v1.1"
PERFORMER "Sacrifice"
TITLE "Crest Of Black"
FILE "Sacrifice - Crest Of Black.flac" WAVE
TRACK 01 AUDIO
TITLE "Friday Nightmare"
PERFORMER "Sacrifice"
INDEX 01 00:00:00
TRACK 02 AUDIO
TITLE "Tank"
PERFORMER "Sacrifice"
INDEX 01 05:22:09
TRACK 03 AUDIO
TITLE "Lucifer Smiles"
PERFORMER "Sacrifice"
INDEX 01 09:28:21
TRACK 04 AUDIO
TITLE "Illusory Scene"
PERFORMER "Sacrifice"
INDEX 01 13:11:74
TRACK 05 AUDIO
TITLE "Redrum"
PERFORMER "Sacrifice"
INDEX 01 14:56:05
TRACK 06 AUDIO
TITLE "Destroy"
PERFORMER "Sacrifice"
INDEX 01 18:56:35
TRACK 07 AUDIO
TITLE "Witch Hunt"
PERFORMER "Sacrifice"
INDEX 01 22:51:14
TRACK 08 AUDIO
TITLE "Black Night "
PERFORMER "Sacrifice"
INDEX 01 29:25:60
TRACK 09 AUDIO
TITLE "Warfare"
PERFORMER "Sacrifice"
INDEX 01 34:49:37
TRACK 10 AUDIO
TITLE "Friday Nightmare (Demo version)"
PERFORMER "Sacrifice"
INDEX 01 40:50:31
TRACK 11 AUDIO
TITLE "Warfare (Demo version)"
PERFORMER "Sacrifice"
INDEX 01 46:02:14

"Log"
Exact Audio Copy V1.1 from 23. June 2015

Отчёт EAC об извлечении, выполненном 10. марта 2016, 11:23

Sacrifice / Crest Of Black

Дисковод: HL-DT-STDVDRAM GTA0N Adapter: 1 ID: 0

Режим чтения : Достоверность
Использование точного потока : Да
Отключение кэша аудио : Да
Использование указателей C2 : Нет

Коррекция смещения при чтении : 102
Способность читать области Lead-in и Lead-out : Нет
Заполнение пропущенных сэмплов тишиной : Да
Удаление блоков с тишиной в начале и конце : Нет
При вычислениях CRC использовались нулевые сэмплы : Да
Интерфейс : Встроенный Win32-интерфейс для Win NT/2000

Выходной формат : Пользовательский кодировщик
Выбранный битрейт : 768 kBit/s
Качество : Высокий
Добавление ID3-тега : Нет
Утилита сжатия : C:\Program Files (x86)\Exact Audio Copy\FLAC\FLAC.EXE
Дополнительные параметры : -6 -V -T "ARTIST=%artist%" -T "TITLE=%title%" -T "ALBUM=%albumtitle%" -T "DATE=%year%" -T "TRACKNUMBER=%tracknr%" -T "GENRE=%genre%" -T "COMMENT=%comment%" -T "BAND=%albuminterpret%" -T "ALBUMARTIST=%albuminterpret%" -T "COMPOSER=%composer%" %haslyrics%--tag-from-file=LYRICS="%lyricsfile%"%haslyrics% -T "DISCNUMBER=%cdnumber%" -T "TOTALDISCS=%totalcds%" -T "TOTALTRACKS=%numtracks%" %hascover%--picture="%coverfile%"%hascover% %source% -o %dest%


TOC извлечённого CD

Трек | Старт | Длительность | Начальный сектор | Конечный сектор
---------------------------------------------------------------------
1 | 0:00.00 | 5:22.09 | 0 | 24158
2 | 5:22.09 | 4:06.12 | 24159 | 42620
3 | 9:28.21 | 3:43.53 | 42621 | 59398
4 | 13:11.74 | 1:44.06 | 59399 | 67204
5 | 14:56.05 | 4:00.30 | 67205 | 85234
6 | 18:56.35 | 3:54.54 | 85235 | 102838
7 | 22:51.14 | 6:34.46 | 102839 | 132434
8 | 29:25.60 | 5:23.52 | 132435 | 156711
9 | 34:49.37 | 6:00.69 | 156712 | 183780
10 | 40:50.31 | 5:11.58 | 183781 | 207163
11 | 46:02.14 | 5:19.69 | 207164 | 231157


Характеристики диапазона извлечения и сообщения об ошибках

Выбранный диапазон

Имя файла C:\Users\магазин\Music\Sacrifice - Crest Of Black.wav

Пиковый уровень 100.0 %
Скорость извлечения 4.0 X
Качество диапазона 100.0 %
CRC копии D25314B1
Копирование... OK

Ошибок не произошло


AccurateRip: сводка

Трек 1 отсутствует в базе данных
Трек 2 отсутствует в базе данных
Трек 3 отсутствует в базе данных
Трек 4 отсутствует в базе данных
Трек 5 отсутствует в базе данных
Трек 6 отсутствует в базе данных
Трек 7 отсутствует в базе данных
Трек 8 отсутствует в базе данных
Трек 9 отсутствует в базе данных
Трек 10 отсутствует в базе данных
Трек 11 отсутствует в базе данных

Ни одного трека нет в базе AccurateRip

Конец отчёта

---- CUETools DB Plugin V2.1.6

[CTDB TOCID: A7YpQ.nTjPuuSTfqk8r1TUnLPSk-] found
Submit result: A7YpQ.nTjPuuSTfqk8r1TUnLPSk- has been confirmed
Track | CTDB Status
1 | (1/1) Accurately ripped
2 | (1/1) Accurately ripped
3 | (1/1) Accurately ripped
4 | (1/1) Accurately ripped
5 | (1/1) Accurately ripped
6 | (1/1) Accurately ripped
7 | (1/1) Accurately ripped
8 | (1/1) Accurately ripped
9 | (1/1) Accurately ripped
10 | (1/1) Accurately ripped
11 | (1/1) Accurately ripped


Crest Of Black


Top
 Profile  
 
 
PostPosted: 12 Mar 2016 
5-speed satisfactor
User avatar
Joined: 16 Feb 2009
Posts: 3554
Lоcаtion: New York, USA
Age: 40
Name: Leonid
Это кто такие?

_________________
Death rules! Metal to all who oppose!


Top
 Profile  
 
 
PostPosted: 12 Mar 2016 
Генеральный thrasher
User avatar
Joined: 03 Oct 2008
Posts: 3445
Lоcаtion: Ханты-Мансийский АО
Age: 43
Name: Сергей
Одни из пионеров японского трэша,Лёнь.


Top
 Profile  
 
 
PostPosted: 12 Mar 2016 
ТрэшЭрос
User avatar
Joined: 18 Jul 2011
Posts: 2296
Lоcаtion: Гулькевичи
Age: 43
Name: Александр
:thanx:
Не знал о таких "драконах" :lob:

_________________
Thrash no trash!!!


Top
 Profile E-mail  
 
 
PostPosted: 12 Mar 2016 
Прокъмитолист
User avatar
Joined: 12 Aug 2007
Posts: 6469
Lоcаtion: Санктъ-Петербуркъ
Age: 50
Name: Олекъ
:thanx:

_________________
прокъметол - это музыко, от которово есть прок (ы)


Top
 Profile  
 
 
PostPosted: 12 Mar 2016 
Хиппей (support team)
User avatar
Joined: 30 Jul 2007
Posts: 106329
Lоcаtion: Киев (Kyiv, UA)
Age: 45
Name: Andrey
:thanx:

mirror: iFolder l Narod l M-Cloud


Это кто такие?

Жертвы японического трэшу :fingal:

_________________


Top
 Profile E-mail  
 
 
PostPosted: 12 Mar 2016 
Хиппей (support team)
User avatar
Joined: 30 Jul 2007
Posts: 106329
Lоcаtion: Киев (Kyiv, UA)
Age: 45
Name: Andrey
Сходу на альбоме понравились лишь 6-й и 9-й трэки :true:
Остальное суета и проходняк :( Хоть группа почти никого и не копирует. Во всяком случае, я не расслышал "чужие" ходы.

3/10

_________________


Top
 Profile E-mail  
 
 
PostPosted: 12 Mar 2016 
Хиппей (support team)
User avatar
Joined: 30 Jul 2007
Posts: 106329
Lоcаtion: Киев (Kyiv, UA)
Age: 45
Name: Andrey
Но, чем дольше слушаю, тем более чёто интересное нахожу =)

_________________


Top
 Profile E-mail  
 
Display posts from previous:  Sort by  
Post new topic Reply to topic  [ 8 posts ] 

All times are UTC + 3 hours


Who is online

Users browsing this forum: No registered users and 2 guests


You cannot post new topics in this forum
You cannot reply to topics in this forum
You cannot edit your posts in this forum
You cannot delete your posts in this forum
You cannot post attachments in this forum

Search for:
Яндекс.Метрика
Powered by phpBB © 2000, 2002, 2005, 2007 phpBB Group