\m/ 80's metal \m/

Информационно-аналитический форум "80 см пыли" (In Search We Trust) "У нас никто никуда не спешит"
Me For You - http://me-4u.com
It is currently 14 Nov 2018

All times are UTC + 3 hours

Spoiler
Chat - temporary registration for foreign users (please leave your application here)







Post new topic Reply to topic  [ 5 posts ] 
Author Message
 
PostPosted: 10 Mar 2016 
Генеральный thrasher
User avatar
Joined: 03 Oct 2008
Posts: 3495
Lоcаtion: Ханты-Мансийский АО
Age: 43
Name: Сергей
Image

Year:1991
Style:Thrash Metal
Country:Japan
Archive:Flac+Cue+Log+Scans
Size:327Mb
Source:my CD
Label:Howling Bull Records
Catalog ID:HBR-F0005

Line-Up:
Masami "Die" Chiba - bass,vocals
Masaru Kitazawa - drums
Akira Itoh - guitars,vocals
Tetsushi Aoyama - guitars,backing vocals

Tracklist:
01. Slammin'... But Thrillin' 01:20
02. Poison 04:16
03. Raise Your Protest 03:43
04. The Answer Of Technology 04:42
05. Interruption 03:39
06. Death Comes Inside 04:13
07. Put 'em To Death 00:53
08. Animal Weapon 04:13
09. Indirect War 03:29
10. The Last Battalion 05:03
11. A 00:13
12. Virtual Image 03:25
13. Restless Fear 04:46
14. Mastered Gas 01:47

"Cue"
REM GENRE "Thrash Metal"
REM DATE 1991
REM DISCID A80AAF0E
REM COMMENT "ExactAudioCopy v1.1"
PERFORMER "Shellshock"
TITLE "Protest And Resistance"
FILE "Shellshock - Protest And Resistance.flac" WAVE
TRACK 01 AUDIO
TITLE "Slammin'... But Thrillin'"
PERFORMER "Shellshock"
INDEX 01 00:00:00
TRACK 02 AUDIO
TITLE "Poison"
PERFORMER "Shellshock"
INDEX 01 01:19:22
TRACK 03 AUDIO
TITLE "Raise Your Protest"
PERFORMER "Shellshock"
INDEX 01 05:35:00
TRACK 04 AUDIO
TITLE "The Answer Of Technology"
PERFORMER "Shellshock"
INDEX 01 09:17:57
TRACK 05 AUDIO
TITLE "Interruption "
PERFORMER "Shellshock"
INDEX 01 13:59:20
TRACK 06 AUDIO
TITLE "Death Comes Inside"
PERFORMER "Shellshock"
INDEX 01 17:37:60
TRACK 07 AUDIO
TITLE "Put 'em to Death"
PERFORMER "Shellshock"
INDEX 01 21:50:37
TRACK 08 AUDIO
TITLE "Animal Weapon"
PERFORMER "Shellshock"
INDEX 01 22:42:70
TRACK 09 AUDIO
TITLE "Indirect War"
PERFORMER "Shellshock"
INDEX 01 26:55:05
TRACK 10 AUDIO
TITLE "The Last Battalion"
PERFORMER "Shellshock"
INDEX 01 30:23:37
TRACK 11 AUDIO
TITLE "A"
PERFORMER "Shellshock"
INDEX 01 35:26:12
TRACK 12 AUDIO
TITLE "Virtual Image"
PERFORMER "Shellshock"
INDEX 01 35:38:57
TRACK 13 AUDIO
TITLE "Restless Fear "
PERFORMER "Shellshock"
INDEX 01 39:03:52
TRACK 14 AUDIO
TITLE "Mastered Gas"
PERFORMER "Shellshock"
INDEX 01 43:48:67

"Log"
Exact Audio Copy V1.1 from 23. June 2015

Отчёт EAC об извлечении, выполненном 10. марта 2016, 10:01

Shellshock / Protest And Resistance

Дисковод: HL-DT-STDVDRAM GTA0N Adapter: 1 ID: 0

Режим чтения : Достоверность
Использование точного потока : Да
Отключение кэша аудио : Да
Использование указателей C2 : Нет

Коррекция смещения при чтении : 102
Способность читать области Lead-in и Lead-out : Нет
Заполнение пропущенных сэмплов тишиной : Да
Удаление блоков с тишиной в начале и конце : Нет
При вычислениях CRC использовались нулевые сэмплы : Да
Интерфейс : Встроенный Win32-интерфейс для Win NT/2000

Выходной формат : Пользовательский кодировщик
Выбранный битрейт : 768 kBit/s
Качество : Высокий
Добавление ID3-тега : Нет
Утилита сжатия : C:\Program Files (x86)\Exact Audio Copy\FLAC\FLAC.EXE
Дополнительные параметры : -6 -V -T "ARTIST=%artist%" -T "TITLE=%title%" -T "ALBUM=%albumtitle%" -T "DATE=%year%" -T "TRACKNUMBER=%tracknr%" -T "GENRE=%genre%" -T "COMMENT=%comment%" -T "BAND=%albuminterpret%" -T "ALBUMARTIST=%albuminterpret%" -T "COMPOSER=%composer%" %haslyrics%--tag-from-file=LYRICS="%lyricsfile%"%haslyrics% -T "DISCNUMBER=%cdnumber%" -T "TOTALDISCS=%totalcds%" -T "TOTALTRACKS=%numtracks%" %hascover%--picture="%coverfile%"%hascover% %source% -o %dest%


TOC извлечённого CD

Трек | Старт | Длительность | Начальный сектор | Конечный сектор
---------------------------------------------------------------------
1 | 0:00.00 | 1:19.22 | 0 | 5946
2 | 1:19.22 | 4:15.53 | 5947 | 25124
3 | 5:35.00 | 3:42.57 | 25125 | 41831
4 | 9:17.57 | 4:41.38 | 41832 | 62944
5 | 13:59.20 | 3:38.40 | 62945 | 79334
6 | 17:37.60 | 4:12.52 | 79335 | 98286
7 | 21:50.37 | 0:52.33 | 98287 | 102219
8 | 22:42.70 | 4:12.10 | 102220 | 121129
9 | 26:55.05 | 3:28.32 | 121130 | 136761
10 | 30:23.37 | 5:02.50 | 136762 | 159461
11 | 35:26.12 | 0:12.45 | 159462 | 160406
12 | 35:38.57 | 3:24.70 | 160407 | 175776
13 | 39:03.52 | 4:45.15 | 175777 | 197166
14 | 43:48.67 | 1:46.08 | 197167 | 205124


Характеристики диапазона извлечения и сообщения об ошибках

Выбранный диапазон

Имя файла C:\Users\магазин\Music\Shellshock - Protest And Resistance.wav

Пиковый уровень 100.0 %
Скорость извлечения 3.8 X
Качество диапазона 99.9 %
CRC копии 55A98905
Копирование... OK

Ошибок не произошло


AccurateRip: сводка

Трек 1 отсутствует в базе данных
Трек 2 отсутствует в базе данных
Трек 3 отсутствует в базе данных
Трек 4 отсутствует в базе данных
Трек 5 отсутствует в базе данных
Трек 6 отсутствует в базе данных
Трек 7 отсутствует в базе данных
Трек 8 отсутствует в базе данных
Трек 9 отсутствует в базе данных
Трек 10 отсутствует в базе данных
Трек 11 отсутствует в базе данных
Трек 12 отсутствует в базе данных
Трек 13 отсутствует в базе данных
Трек 14 отсутствует в базе данных

Ни одного трека нет в базе AccurateRip

Конец отчёта

---- CUETools DB Plugin V2.1.6

[CTDB TOCID: 1DMsQwiZYD2FkMbTJtAFpUsQmZ4-] disk not present in database
Submit result: 1DMsQwiZYD2FkMbTJtAFpUsQmZ4- has been uploaded


Protest And Resistance


Top
 Profile  
 
 
PostPosted: 10 Mar 2016 
Прокъмитолист
User avatar
Joined: 12 Aug 2007
Posts: 6500
Lоcаtion: Санктъ-Петербуркъ
Age: 51
Name: Олекъ
:thanx:

_________________
прокъметол - это музыко, от которово есть прок (ы)


Top
 Profile  
 
 
PostPosted: 10 Mar 2016 
А может смените мне статус?..
User avatar
Joined: 02 Feb 2009
Posts: 999
Lоcаtion: из Тулы
Age: 44
Name: Максим
Спасибо Серега

_________________
КМА


Top
 Profile  
 
 
PostPosted: 10 Mar 2016 
Alive Again
User avatar
Joined: 17 Dec 2008
Posts: 4740
Lоcаtion: Курск Воронеж Оскол
Age: 44
Name: Дмитрий
:thanx:


Top
 Profile E-mail  
 
 
PostPosted: 11 Mar 2016 
ТрэшЭрос
User avatar
Joined: 18 Jul 2011
Posts: 2296
Lоcаtion: Гулькевичи
Age: 43
Name: Александр
:thanx: :lob:

_________________
Thrash no trash!!!


Top
 Profile E-mail  
 
Display posts from previous:  Sort by  
Post new topic Reply to topic  [ 5 posts ] 

All times are UTC + 3 hours


Who is online

Users browsing this forum: No registered users and 4 guests


You cannot post new topics in this forum
You cannot reply to topics in this forum
You cannot edit your posts in this forum
You cannot delete your posts in this forum
You cannot post attachments in this forum

Search for:
Яндекс.Метрика
Powered by phpBB © 2000, 2002, 2005, 2007 phpBB Group