\m/ 80's metal \m/

Информационно-аналитический форум "80 см пыли" (In Search We Trust) "У нас никто никуда не спешит"
Me For You - http://me-4u.com
It is currently 22 Nov 2018

All times are UTC + 3 hours

Spoiler
Chat - temporary registration for foreign users (please leave your application here)







Post new topic Reply to topic  [ 9 posts ] 
Author Message
 
PostPosted: 10 Mar 2016 
Генеральный thrasher
User avatar
Joined: 03 Oct 2008
Posts: 3510
Lоcаtion: Ханты-Мансийский АО
Age: 43
Name: Сергей
Image

Year:1989
Style:Thrash Metal
Country:Japan
Archive:Flac+Cue+Log+Scans
Size:354Mb
Source:my CD
Label:Explosion Works
Catalog ID:EXP-HMD252051

Line-Up:
Masaru Kitazawa - drums
Akira Itoh - guitars,vocals
Kenji Katayama - bass
Toshikatu Suda - guitars

Tracklist:
01. Money 06:27
02. Cries Of Despair 04:02
03. I Wanna Get More Thrill 04:39
04. Balance Of Society 05:01
05. Mortal Days 05:11
06. Killed By Myself 03:32
07. Face Realities 03:44
08. Danger Zone 03:14
09. The Cage 05:40
10. Go To The Front - Don't Ask For Your Life 09:23

"Cue"
REM GENRE "Thrash Metal"
REM DATE 1989
REM DISCID 930BE60A
REM COMMENT "ExactAudioCopy v1.1"
PERFORMER "Shellshock"
TITLE "Mortal Days"
FILE "Shellshock - Mortal Days.flac" WAVE
TRACK 01 AUDIO
TITLE "Money"
PERFORMER "Shellshock"
INDEX 01 00:00:00
TRACK 02 AUDIO
TITLE "Cries Of Despair"
PERFORMER "Shellshock"
INDEX 01 06:26:15
TRACK 03 AUDIO
TITLE "I Wanna Get More Thrill"
PERFORMER "Shellshock"
INDEX 01 10:27:68
TRACK 04 AUDIO
TITLE "Balance Of Society"
PERFORMER "Shellshock"
INDEX 01 15:06:43
TRACK 05 AUDIO
TITLE "Mortal Days"
PERFORMER "Shellshock"
INDEX 01 20:06:53
TRACK 06 AUDIO
TITLE "Killed By Myself "
PERFORMER "Shellshock"
INDEX 01 25:17:03
TRACK 07 AUDIO
TITLE "Face Realities"
PERFORMER "Shellshock"
INDEX 01 28:49:00
TRACK 08 AUDIO
TITLE "Danger Zone"
PERFORMER "Shellshock"
INDEX 01 32:32:08
TRACK 09 AUDIO
TITLE "The Cage"
PERFORMER "Shellshock"
INDEX 00 35:43:62
INDEX 01 35:45:28
TRACK 10 AUDIO
TITLE "Go To The Front - Don't Ask For Your Life"
PERFORMER "Shellshock"
INDEX 00 41:22:68
INDEX 01 41:24:38

"Log"
Exact Audio Copy V1.1 from 23. June 2015

Отчёт EAC об извлечении, выполненном 10. марта 2016, 11:00

Shellshock / Mortal Days

Дисковод: HL-DT-STDVDRAM GTA0N Adapter: 1 ID: 0

Режим чтения : Достоверность
Использование точного потока : Да
Отключение кэша аудио : Да
Использование указателей C2 : Нет

Коррекция смещения при чтении : 102
Способность читать области Lead-in и Lead-out : Нет
Заполнение пропущенных сэмплов тишиной : Да
Удаление блоков с тишиной в начале и конце : Нет
При вычислениях CRC использовались нулевые сэмплы : Да
Интерфейс : Встроенный Win32-интерфейс для Win NT/2000

Выходной формат : Пользовательский кодировщик
Выбранный битрейт : 768 kBit/s
Качество : Высокий
Добавление ID3-тега : Нет
Утилита сжатия : C:\Program Files (x86)\Exact Audio Copy\FLAC\FLAC.EXE
Дополнительные параметры : -6 -V -T "ARTIST=%artist%" -T "TITLE=%title%" -T "ALBUM=%albumtitle%" -T "DATE=%year%" -T "TRACKNUMBER=%tracknr%" -T "GENRE=%genre%" -T "COMMENT=%comment%" -T "BAND=%albuminterpret%" -T "ALBUMARTIST=%albuminterpret%" -T "COMPOSER=%composer%" %haslyrics%--tag-from-file=LYRICS="%lyricsfile%"%haslyrics% -T "DISCNUMBER=%cdnumber%" -T "TOTALDISCS=%totalcds%" -T "TOTALTRACKS=%numtracks%" %hascover%--picture="%coverfile%"%hascover% %source% -o %dest%


TOC извлечённого CD

Трек | Старт | Длительность | Начальный сектор | Конечный сектор
---------------------------------------------------------------------
1 | 0:00.00 | 6:26.15 | 0 | 28964
2 | 6:26.15 | 4:01.53 | 28965 | 47092
3 | 10:27.68 | 4:38.50 | 47093 | 67992
4 | 15:06.43 | 5:00.10 | 67993 | 90502
5 | 20:06.53 | 5:10.25 | 90503 | 113777
6 | 25:17.03 | 3:31.72 | 113778 | 129674
7 | 28:49.00 | 3:43.08 | 129675 | 146407
8 | 32:32.08 | 3:13.20 | 146408 | 160902
9 | 35:45.28 | 5:39.10 | 160903 | 186337
10 | 41:24.38 | 9:22.12 | 186338 | 228499


Характеристики диапазона извлечения и сообщения об ошибках

Выбранный диапазон

Имя файла C:\Users\магазин\Music\Shellshock - Mortal Days.wav

Пиковый уровень 100.0 %
Скорость извлечения 4.0 X
Качество диапазона 100.0 %
CRC копии BA62D821
Копирование... OK

Ошибок не произошло


AccurateRip: сводка

Трек 1 : извлечено точно (доверие 1) [E5415370] (AR v2)
Трек 2 : извлечено точно (доверие 1) [D56CA302] (AR v2)
Трек 3 : извлечено точно (доверие 1) [34E4FB8A] (AR v2)
Трек 4 : извлечено точно (доверие 1) [C71EC146] (AR v2)
Трек 5 : извлечено точно (доверие 1) [8A4689CA] (AR v2)
Трек 6 : извлечено точно (доверие 1) [B7CB75CB] (AR v2)
Трек 7 : извлечено точно (доверие 1) [B1C011B1] (AR v2)
Трек 8 : извлечено точно (доверие 1) [6468C9FF] (AR v2)
Трек 9 : извлечено точно (доверие 1) [9819EB97] (AR v2)
Трек 10 : извлечено точно (доверие 1) [8B7DE2E3] (AR v2)

Все треки извлечены точно

Конец отчёта

---- CUETools DB Plugin V2.1.6

[CTDB TOCID: ae.A58P8B8tIkMr1ua687B5DtGQ-] disk not present in database
Submit result: ae.A58P8B8tIkMr1ua687B5DtGQ- has been uploaded


Mortal Days


Top
 Profile  
 
 
PostPosted: 10 Mar 2016 
А может смените мне статус?..
User avatar
Joined: 02 Feb 2009
Posts: 999
Lоcаtion: из Тулы
Age: 44
Name: Максим
:thanx:

_________________
КМА


Top
 Profile  
 
 
PostPosted: 10 Mar 2016 
Прокъмитолист
User avatar
Joined: 12 Aug 2007
Posts: 6504
Lоcаtion: Санктъ-Петербуркъ
Age: 51
Name: Олекъ
спасибо, Серёг! :thanx:

_________________
прокъметол - это музыко, от которово есть прок (ы)


Top
 Profile  
 
 
PostPosted: 10 Mar 2016 
Alive Again
User avatar
Joined: 17 Dec 2008
Posts: 4744
Lоcаtion: Курск Воронеж Оскол
Age: 44
Name: Дмитрий
Серёга переключился на островитян, :thanx:


Top
 Profile E-mail  
 
 
PostPosted: 11 Mar 2016 
Генеральный thrasher
User avatar
Joined: 03 Oct 2008
Posts: 3510
Lоcаtion: Ханты-Мансийский АО
Age: 43
Name: Сергей
Серёга переключился на островитян, :thanx:


Почему переключился,Дим? Я всегда любил японский трэшак.


Top
 Profile  
 
 
PostPosted: 11 Mar 2016 
ТрэшЭрос
User avatar
Joined: 18 Jul 2011
Posts: 2300
Lоcаtion: Гулькевичи
Age: 43
Name: Александр
:thanx:

_________________
Thrash no trash!!!


Top
 Profile E-mail  
 
 
PostPosted: 02 Feb 2018 
Пионэръ
Joined: 01 Aug 2012
Posts: 13
Lоcаtion: BRASIL
Name: EVERTON
OBRIGADO.


Top
 Profile E-mail  
 
 
PostPosted: 02 Feb 2018 
Хиппей (support team)
User avatar
Joined: 30 Jul 2007
Posts: 108264
Lоcаtion: Киев (Kyiv, UA)
Age: 45
Name: Andrey
:thanx: И от меня обригадо :kro:

mirror: Depos l Narod l M-Cloud l Drop

_________________


Top
 Profile E-mail  
 
 
PostPosted: 03 Feb 2018 
Хиппей (support team)
User avatar
Joined: 30 Jul 2007
Posts: 108264
Lоcаtion: Киев (Kyiv, UA)
Age: 45
Name: Andrey
4/10

Но вообще - почти никак :(

Запись явно взята с демо-кассеты? :scratch:

_________________


Top
 Profile E-mail  
 
Display posts from previous:  Sort by  
Post new topic Reply to topic  [ 9 posts ] 

All times are UTC + 3 hours


Who is online

Users browsing this forum: No registered users and 1 guest


You cannot post new topics in this forum
You cannot reply to topics in this forum
You cannot edit your posts in this forum
You cannot delete your posts in this forum
You cannot post attachments in this forum

Search for:
Яндекс.Метрика
Powered by phpBB © 2000, 2002, 2005, 2007 phpBB Group