\m/ 80's metal \m/

Информационно-аналитический форум "80 см пыли" (In Search We Trust) "У нас никто никуда не спешит"
Железнодорожная биржа - RailAgent
It is currently 23 Jul 2018

All times are UTC + 3 hours

Spoiler
Chat - temporary registration for foreign users (please leave your application here)







Post new topic Reply to topic  [ 22 posts ]  Go to page 1, 2  Next
Author Message
 
PostPosted: 09 Feb 2016 
5-speed satisfactor
User avatar
Joined: 16 Feb 2009
Posts: 3527
Lоcаtion: New York, USA
Age: 40
Name: Leonid
Вот Рома поделился. Берите, пока есть. Я сейчас качаю. Даже не знаю, что внутри.

https://www.wetransfer.com/downloads/5f ... 946/ad7701

_________________
Death rules! Metal to all who oppose!


Top
 Profile  
 
 
PostPosted: 09 Feb 2016 
А может смените мне статус?..
User avatar
Joined: 24 Dec 2008
Posts: 608
Age: 44
Name: Дмитрий
Спасибо!


Top
 Profile  
 
 
PostPosted: 10 Feb 2016 
Состояние Сергей
Joined: 18 Aug 2007
Posts: 3229
Lоcаtion: Владивосток
Age: 43
Name: Николай Николаевич
ура, спасибо. Если есть еще какие-нить первопресы от Black Dragon Records было бы то же круто


Top
 Profile  
 
 
PostPosted: 10 Feb 2016 
А может смените мне статус?..
User avatar
Joined: 24 Dec 2008
Posts: 608
Age: 44
Name: Дмитрий
Лёнь, а сканами разжиться возможно? :oops:


Top
 Profile  
 
 
PostPosted: 10 Feb 2016 
5-speed satisfactor
User avatar
Joined: 16 Feb 2009
Posts: 3527
Lоcаtion: New York, USA
Age: 40
Name: Leonid
К Виталию, если он сможет. У Ромы просить не буду.

_________________
Death rules! Metal to all who oppose!


Top
 Profile  
 
 
PostPosted: 12 Feb 2016 
Хиппей (support team)
User avatar
Joined: 30 Jul 2007
Posts: 105211
Lоcаtion: Киев (Kyiv, UA)
Age: 45
Name: Andrey
:thanx:

_________________


Top
 Profile E-mail  
 
 
PostPosted: 12 Feb 2016 
5-speed satisfactor
User avatar
Joined: 16 Feb 2009
Posts: 3527
Lоcаtion: New York, USA
Age: 40
Name: Leonid
Сначала я скачал After The Fall From Grace отсюда. Но здесь однозначно с винила. Щелчки и околояблочные по полной. Потом я взял Ромины первопрессы. Black Dragon-овский After The Fall From Grace однозначно с винила. Причем щелчки в тех же самых местах, что и на релизе в рутрекере. Единственная разница, на рутрекере громкость меньше. На Black Dragon обрезано под 0db, a на рутрековском до -1 или -2 db.

Первопресс Master Of Disguise + The Dominatress тоже, наверное, с винила. Хотя щелчков я там и не слышал, но околояблочные заметны.

Кто-нибудь может что-то вразумительное сказать? Например, что за релиз на рутрекере?

Виталий, может выложишь сюда свои первопрессы?

_________________
Death rules! Metal to all who oppose!


Top
 Profile  
 
 
PostPosted: 12 Feb 2016 
Хиппей (support team)
User avatar
Joined: 30 Jul 2007
Posts: 105211
Lоcаtion: Киев (Kyiv, UA)
Age: 45
Name: Andrey
metaleonid wrote:
Кто-нибудь может что-то вразумительное сказать? Например, что за релиз на рутрекере?

:vic:

Я щас только отдельно перезалью те два альбома, которые были у тебе у архиве :pardon:
Ну и хоть послушаю их. Саму музыку. О косяках заморачиваца не буду. Лень ибо.
Хотя, если они сами себя обнаружат, то я ж не промолчу.

_________________


Top
 Profile E-mail  
 
 
PostPosted: 12 Feb 2016 
Хиппей (support team)
User avatar
Joined: 30 Jul 2007
Posts: 105211
Lоcаtion: Киев (Kyiv, UA)
Age: 45
Name: Andrey
Savage Grace - 1985 - Master of Disguise + The Dominatress [flac]

mirror: Narod l M-Cloud

log
CUERipper v2.1.5 Copyright (C) 2008-13 Grigory Chudov

EAC extraction logfile from 9. February 2016, 14:25

Savage Grace / Master of Disguise - The Dominatress

Used drive : TSSTcorp CDDVDW SH-224DB Adapter: 1 ID: 0

Read mode : Secure
Utilize accurate stream : Yes
Defeat audio cache : Yes
Make use of C2 pointers : No

Read offset correction : 6
Overread into Lead-In and Lead-Out : No
Fill up missing offset samples with silence : Yes
Delete leading and trailing silent blocks : No
Null samples used in CRC calculations : Yes
Used interface : Native Win32 interface for Win NT & 2000

Used output format : Internal WAV Routines
Sample format : 44.100 Hz; 16 Bit; Stereo


TOC of the extracted CD

Track | Start | Length | Start sector | End sector
---------------------------------------------------------
1 | 0:00.33 | 1:02.25 | 33 | 4707
2 | 1:02.58 | 4:25.37 | 4708 | 24619
3 | 5:28.20 | 4:22.08 | 24620 | 44277
4 | 9:50.28 | 4:18.55 | 44278 | 63682
5 | 14:09.08 | 3:29.55 | 63683 | 79412
6 | 17:38.63 | 4:02.45 | 79413 | 97607
7 | 21:41.33 | 4:56.57 | 97608 | 119864
8 | 26:38.15 | 4:39.70 | 119865 | 140859
9 | 31:18.10 | 4:14.13 | 140860 | 159922
10 | 35:32.23 | 4:32.70 | 159923 | 180392
11 | 40:05.18 | 5:38.65 | 180393 | 205807
12 | 45:44.08 | 4:23.50 | 205808 | 225582
13 | 50:07.58 | 3:37.55 | 225583 | 241912
14 | 53:45.38 | 5:11.32 | 241913 | 265269


Range status and errors

Selected range

Filename d:\Users\rom.hammer\Music\Savage Grace - Master of Disguise - The Dominatress.wav

Peak level 99.4 %
Range quality 100.0 %
Copy CRC BA908E6D
Copy OK

No errors occurred


AccurateRip summary

Track 1 accurately ripped (confidence 6) [EAD8A851]
Track 2 accurately ripped (confidence 6) [85DEE507]
Track 3 accurately ripped (confidence 6) [CA05596E]
Track 4 accurately ripped (confidence 6) [4B51D140]
Track 5 accurately ripped (confidence 6) [3A7DFEC9]
Track 6 accurately ripped (confidence 6) [D97D7636]
Track 7 accurately ripped (confidence 7) [E0FDEC1A]
Track 8 accurately ripped (confidence 6) [53E26929]
Track 9 accurately ripped (confidence 6) [3EE38B44]
Track 10 accurately ripped (confidence 6) [803E489B]
Track 11 accurately ripped (confidence 6) [456ADD19]
Track 12 accurately ripped (confidence 6) [FB9B7439]
Track 13 accurately ripped (confidence 6) [DB592EE6]
Track 14 accurately ripped (confidence 6) [45F38A37]

All tracks accurately ripped

End of status report

cue
REM DISCID 9A0DD00E
PERFORMER "Savage Grace"
TITLE "Master of Disguise - The Dominatress"
REM DATE 1985
REM GENRE "Heavy Metal"
REM COMMENT "CUERipper v2.1.5 Copyright (C) 2008-13 Grigory Chudov"
FILE "Savage Grace - Master of Disguise - The Dominatress.wav" WAVE
TRACK 01 AUDIO
PERFORMER "Savage Grace"
TITLE "Lions Roar"
INDEX 00 00:00:00
INDEX 01 00:00:33
TRACK 02 AUDIO
PERFORMER "Savage Grace"
TITLE "Bound to Be Free"
INDEX 01 01:02:58
TRACK 03 AUDIO
PERFORMER "Savage Grace"
TITLE "Fear My Way"
INDEX 00 05:25:33
INDEX 01 05:28:20
TRACK 04 AUDIO
PERFORMER "Savage Grace"
TITLE "Sins of the Damned"
INDEX 00 09:49:58
INDEX 01 09:50:28
TRACK 05 AUDIO
PERFORMER "Savage Grace"
TITLE "Into the Fire"
INDEX 00 14:07:33
INDEX 01 14:09:08
TRACK 06 AUDIO
PERFORMER "Savage Grace"
TITLE "Master of Disguise"
INDEX 00 17:37:23
INDEX 01 17:38:63
TRACK 07 AUDIO
PERFORMER "Savage Grace"
TITLE "Betrayer"
INDEX 00 21:39:20
INDEX 01 21:41:33
TRACK 08 AUDIO
PERFORMER "Savage Grace"
TITLE "Sons of Iniquity"
INDEX 00 26:34:20
INDEX 01 26:38:15
TRACK 09 AUDIO
PERFORMER "Savage Grace"
TITLE "No One Left to Blame"
INDEX 00 31:17:08
INDEX 01 31:18:10
TRACK 10 AUDIO
PERFORMER "Savage Grace"
TITLE "Fight for Your Life"
INDEX 00 35:28:58
INDEX 01 35:32:23
TRACK 11 AUDIO
PERFORMER "Savage Grace"
TITLE "Curse the Night"
INDEX 00 40:03:33
INDEX 01 40:05:18
TRACK 12 AUDIO
PERFORMER "Savage Grace"
TITLE "The Dominatress"
INDEX 00 45:42:33
INDEX 01 45:44:08
TRACK 13 AUDIO
PERFORMER "Savage Grace"
TITLE "Live to Burn"
INDEX 00 50:04:58
INDEX 01 50:07:58
TRACK 14 AUDIO
PERFORMER "Savage Grace"
TITLE "Too Young to Die"
INDEX 00 53:44:38
INDEX 01 53:45:38



Savage Grace - 1986 - After the Fall from Grace [flac]

mirror: Narod l M-Cloud

log
CUERipper v2.1.5 Copyright (C) 2008-13 Grigory Chudov

EAC extraction logfile from 9. February 2016, 14:35

Savage Grace / After the Fall from Grace

Used drive : TSSTcorp CDDVDW SH-224DB Adapter: 1 ID: 0

Read mode : Secure
Utilize accurate stream : Yes
Defeat audio cache : Yes
Make use of C2 pointers : No

Read offset correction : 6
Overread into Lead-In and Lead-Out : No
Fill up missing offset samples with silence : Yes
Delete leading and trailing silent blocks : No
Null samples used in CRC calculations : Yes
Used interface : Native Win32 interface for Win NT & 2000

Used output format : Internal WAV Routines
Sample format : 44.100 Hz; 16 Bit; Stereo


TOC of the extracted CD

Track | Start | Length | Start sector | End sector
---------------------------------------------------------
1 | 0:00.00 | 1:36.70 | 0 | 7269
2 | 1:36.70 | 5:51.07 | 7270 | 33601
3 | 7:28.02 | 5:42.43 | 33602 | 59294
4 | 13:10.45 | 4:40.37 | 59295 | 80331
5 | 17:51.07 | 0:25.70 | 80332 | 82276
6 | 18:17.02 | 3:54.15 | 82277 | 99841
7 | 22:11.17 | 4:40.45 | 99842 | 120886
8 | 26:51.62 | 5:02.50 | 120887 | 143586
9 | 31:54.37 | 4:07.72 | 143587 | 162183


Range status and errors

Selected range

Filename d:\Users\rom.hammer\Music\Savage Grace - After the Fall from Grace.wav

Peak level 100.0 %
Range quality 100.0 %
Copy CRC D40C6F85
Copy OK

No errors occurred


AccurateRip summary

Track 1 accurately ripped (confidence 4) [910E2447]
Track 2 accurately ripped (confidence 4) [3F555EDA]
Track 3 accurately ripped (confidence 4) [FA4D6CB2]
Track 4 accurately ripped (confidence 4) [CCBCCBC4]
Track 5 accurately ripped (confidence 4) [0674F41A]
Track 6 accurately ripped (confidence 4) [ADE74C2F]
Track 7 accurately ripped (confidence 4) [11289025]
Track 8 accurately ripped (confidence 4) [18E3A3DC]
Track 9 accurately ripped (confidence 4) [A3CB54F4]

All tracks accurately ripped

End of status report

cue
REM DISCID 72087209
PERFORMER "Savage Grace"
TITLE "After the Fall from Grace"
CATALOG 4013859354510
REM DATE 1986
REM DISCNUMBER 1
REM TOTALDISCS 1
REM COMMENT "CUERipper v2.1.5 Copyright (C) 2008-13 Grigory Chudov"
FILE "Savage Grace - After the Fall from Grace.wav" WAVE
TRACK 01 AUDIO
PERFORMER "Savage Grace"
TITLE "A Call to Arms"
INDEX 01 00:00:00
TRACK 02 AUDIO
PERFORMER "Savage Grace"
TITLE "We came, We saw, We conquered"
INDEX 01 01:36:70
TRACK 03 AUDIO
PERFORMER "Savage Grace"
TITLE "After the Fall from Grace"
INDEX 00 07:27:10
INDEX 01 07:28:02
TRACK 04 AUDIO
PERFORMER "Savage Grace"
TITLE "Trial by Fire"
INDEX 00 13:09:50
INDEX 01 13:10:45
TRACK 05 AUDIO
PERFORMER "Savage Grace"
TITLE "Palestinia"
INDEX 00 17:49:35
INDEX 01 17:51:07
TRACK 06 AUDIO
PERFORMER "Savage Grace"
TITLE "Age of Innocence"
INDEX 01 18:17:02
TRACK 07 AUDIO
PERFORMER "Savage Grace"
TITLE "Flesh and Blood"
INDEX 00 22:09:72
INDEX 01 22:11:17
TRACK 08 AUDIO
PERFORMER "Savage Grace"
TITLE "Destination unknown"
INDEX 01 26:51:62
TRACK 09 AUDIO
PERFORMER "Savage Grace"
TITLE "Tales of Mystery"
INDEX 00 31:53:30
INDEX 01 31:54:37

_________________


Top
 Profile E-mail  
 
 
PostPosted: 13 Feb 2016 
Рарник и трушник
User avatar
Joined: 25 Dec 2009
Posts: 7859
Lоcаtion: Москва
Age: 52
Name: Виталий
metaleonid wrote:
На Black Dragon обрезано под 0db, a на рутрековском до -1 или -2 db.

metaleonid wrote:
Кто-нибудь может что-то вразумительное сказать? Например, что за релиз на рутрекере?

Лёнь, аффтар не пишет, ну и хрен бы сним. Чего заморачиваться, может это копия на цыдыэре, записанная давно на цид-рекордере по аналогу, с ручной регулировкой уровня. Знаешь скока таких цидыэрок по миру ходит? Да я и сам на своём рекордере их откопил кучу. Ну и чо? :vic:
Я на такой мусор не замарачиваюсь. У тебя нормальные рипы с первопресса. У мну точно такие-же первопрессы, чего плодить мусор. Они с винила, я с самого начала это говорил, причём дерьмово рипнутые, каша и околояблочные. Вот ремастеры 2010, хоть и со сжатием, но хотя-бы с мастер-тейпов, другого всё-равно нету.
Не буду свои рипать, смысла нет, сканы тока попожжее отсканирую если тока. :vic:


Top
 Profile  
 
 
PostPosted: 13 Feb 2016 
5-speed satisfactor
User avatar
Joined: 16 Feb 2009
Posts: 3527
Lоcаtion: New York, USA
Age: 40
Name: Leonid
Виталий, ну рипни хотя бы первый трек с After The Fall From Grace. Я прогоню через 'Compare WAV' со своим, чтоб на 100% убедиться в аутинчoсти. :thanx:

_________________
Death rules! Metal to all who oppose!


Top
 Profile  
 
 
PostPosted: 14 Feb 2016 
А может смените мне статус?..
User avatar
Joined: 24 Dec 2008
Posts: 608
Age: 44
Name: Дмитрий
Не буду свои рипать, смысла нет, сканы тока попожжее отсканирую если тока. :vic:

Было бы оччень расчудесненько... :thanx:


Top
 Profile  
 
 
PostPosted: 14 Feb 2016 
Рарник и трушник
User avatar
Joined: 25 Dec 2009
Posts: 7859
Lоcаtion: Москва
Age: 52
Name: Виталий
metaleonid wrote:
Виталий, ну рипни хотя бы первый трек с After The Fall From Grace. Я прогоню через 'Compare WAV' со своим, чтоб на 100% убедиться в аутинчoсти. :thanx:

Держи, трек лень было выдирать, рипнул весь альбом.
https://yadi.sk/d/uFx_6J-looCRY


Top
 Profile  
 
 
PostPosted: 14 Feb 2016 
Хиппей (support team)
User avatar
Joined: 30 Jul 2007
Posts: 105211
Lоcаtion: Киев (Kyiv, UA)
Age: 45
Name: Andrey
metaleonid wrote:
Виталий, ну рипни хотя бы первый трек с After The Fall From Grace. Я прогоню через 'Compare WAV' со своим, чтоб на 100% убедиться в аутинчoсти. :thanx:

Держи, трек лень было выдирать, рипнул весь альбом.
https://yadi.sk/d/uFx_6J-looCRY

:thanx:

mirror: iFolder l Narod l M-Cloud

_________________


Top
 Profile E-mail  
 
 
PostPosted: 14 Feb 2016 
5-speed satisfactor
User avatar
Joined: 16 Feb 2009
Posts: 3527
Lоcаtion: New York, USA
Age: 40
Name: Leonid
Спасибо, Виталий. Сравнил с Роминым. Конгруэнтны. Рип с трекера в топку?

_________________
Death rules! Metal to all who oppose!


Top
 Profile  
 
 
PostPosted: 14 Feb 2016 
Хиппей (support team)
User avatar
Joined: 30 Jul 2007
Posts: 105211
Lоcаtion: Киев (Kyiv, UA)
Age: 45
Name: Andrey
metaleonid wrote:
Сравнил с Роминым.

Ээээ.. и как, есть отличия?

_________________


Top
 Profile E-mail  
 
 
PostPosted: 15 Feb 2016 
5-speed satisfactor
User avatar
Joined: 16 Feb 2009
Posts: 3527
Lоcаtion: New York, USA
Age: 40
Name: Leonid
metaleonid wrote:
Сравнил с Роминым.

Ээээ.. и как, есть отличия?


Я ж написал конгруэнтны. :benya: :benya: :benya: :benya: :benya:

_________________
Death rules! Metal to all who oppose!


Top
 Profile  
 
 
PostPosted: 15 Feb 2016 
Рарник и трушник
User avatar
Joined: 25 Dec 2009
Posts: 7859
Lоcаtion: Москва
Age: 52
Name: Виталий
metaleonid wrote:
Рип с трекера в топку?

Ага, в неё родимую. :benya:
Scatterbrain wrote:
Ээээ.. и как, есть отличия?

metaleonid wrote:
Я ж написал конгруэнтны.

Отличий нет. :vic:
Для танкистов надо три раза повторять. :benya: Или СуСаныч просто такого слова не знает. :benya:


Top
 Profile  
 
 
PostPosted: 15 Feb 2016 
Хиппей (support team)
User avatar
Joined: 30 Jul 2007
Posts: 105211
Lоcаtion: Киев (Kyiv, UA)
Age: 45
Name: Andrey
metaleonid wrote:
Я ж написал конгруэнтны. :benya: :benya: :benya: :benya: :benya:

Vitaly65 wrote:
:benya: Или СуСаныч просто такого слова не знает. :benya:

Впервые читаю.
Я думал это некая транскрипция слова... "congratulations" :pardon:

_________________


Top
 Profile E-mail  
 
 
PostPosted: 15 Feb 2016 
Хиппей (support team)
User avatar
Joined: 30 Jul 2007
Posts: 105211
Lоcаtion: Киев (Kyiv, UA)
Age: 45
Name: Andrey
Quote:
конгруэнтность — в языкознании: морфологическая зависимость местоимения от его антецедента;

:cow:

_________________


Top
 Profile E-mail  
 
Display posts from previous:  Sort by  
Post new topic Reply to topic  [ 22 posts ]  Go to page 1, 2  Next

All times are UTC + 3 hours


Who is online

Users browsing this forum: No registered users and 3 guests


You cannot post new topics in this forum
You cannot reply to topics in this forum
You cannot edit your posts in this forum
You cannot delete your posts in this forum
You cannot post attachments in this forum

Search for:
Яндекс.Метрика
Powered by phpBB © 2000, 2002, 2005, 2007 phpBB Group