\m/ 80's metal \m/

Информационно-аналитический форум "80 см пыли" (In Search We Trust) "У нас никто никуда не спешит"
Me For You - http://me-4u.com
It is currently 16 Nov 2018

All times are UTC + 3 hours

Spoiler
Chat - temporary registration for foreign users (please leave your application here)







Post new topic Reply to topic  [ 2 posts ] 
Author Message
 
PostPosted: 08 Jan 2016 
Генеральный thrasher
User avatar
Joined: 03 Oct 2008
Posts: 3499
Lоcаtion: Ханты-Мансийский АО
Age: 43
Name: Сергей
Не очень знаком с прибалтийскими командами.Но эти первопроходцы стиля из Эстонии чем-то зацепили меня.Да и вообще интересно послушать материал давних уже времён,пусть и архаичный,но записанный в общем-то неплохо.

Image

Year:1990 (2008 Reissue)
Style:Thrash Metal
Country:Estonia
Archive:Flac+Cue+Log+Scans
Size:348Mb
Source:my CD
Label:Self-Release

Line-Up:
Tamur - vocals,guitar
Sven - bass
Ardo - drums

Tracklist:
01. Bad Friends 05:19
02. Abandoned 04:51
03. Jupsib 04:35
04. Garage 03:27
05. Brian Piracy 05:15
06. Sleeping In Shit 04:24
07. Insanity 03:58
08. Mirror Man 04:25
09. The Last Chance To Die 05:01
10. Blues From '2001 02:44

"Cue"
REM GENRE "Thrash Metal"
REM DATE 1990
REM DISCID 7A0A490A
REM COMMENT "ExactAudioCopy v0.99pb5"
PERFORMER "Shower"
TITLE "Brain Piracy"
FILE "Shower - Brain Piracy.flac" WAVE
TRACK 01 AUDIO
TITLE "Bad Friends"
PERFORMER "Shower"
INDEX 01 00:00:00
TRACK 02 AUDIO
TITLE "Abandoned"
PERFORMER "Shower"
INDEX 00 05:15:60
INDEX 01 05:18:10
TRACK 03 AUDIO
TITLE "Jupsib"
PERFORMER "Shower"
INDEX 00 10:06:18
INDEX 01 10:08:55
TRACK 04 AUDIO
TITLE "Garage"
PERFORMER "Shower"
INDEX 00 14:41:54
INDEX 01 14:43:51
TRACK 05 AUDIO
TITLE "Brian Piracy"
PERFORMER "Shower"
INDEX 00 18:07:38
INDEX 01 18:09:53
TRACK 06 AUDIO
TITLE "Sleeping In Shit"
PERFORMER "Shower"
INDEX 00 23:22:33
INDEX 01 23:24:13
TRACK 07 AUDIO
TITLE "Insanity"
PERFORMER "Shower"
INDEX 00 27:45:65
INDEX 01 27:47:50
TRACK 08 AUDIO
TITLE "Mirror Man"
PERFORMER "Shower"
INDEX 00 31:43:14
INDEX 01 31:45:22
TRACK 09 AUDIO
TITLE "The Last Chance To Die"
PERFORMER "Shower"
INDEX 00 36:07:14
INDEX 01 36:09:49
TRACK 10 AUDIO
TITLE "Blues From '2001"
PERFORMER "Shower"
INDEX 00 41:08:00
INDEX 01 41:10:05

"Log"
Exact Audio Copy V0.99 prebeta 5 from 4. May 2009

Отчёт EAC об извлечении, выполненном 14. ноября 2014, 13:05

Shower / Brain Piracy

Дисковод: MATSHITADVD-RAM UJ8A0AS Adapter: 0 ID: 1

Режим чтения : Достоверность
Использование точного потока : Да
Отключение кэша аудио : Да
Использование указателей C2 : Нет

Коррекция смещения при чтении : 102
Способность читать области Lead-in и Lead-out : Нет
Заполнение пропущенных сэмплов тишиной : Да
Удаление блоков с тишиной в начале и конце : Нет
При вычислениях CRC использовались нулевые сэмплы : Да
Интерфейс : Встроенный Win32-интерфейс для Win NT/2000

Выходной формат : Пользовательский кодировщик
Выбранный битрейт : 1024 kBit/s
Качество : Высокий
Добавление ID3-тэга : Нет
Утилита сжатия : C:\Program Files\Exact Audio Copy\FLAC\FLAC.EXE
Дополнительные параметры : -6 -V -T "ARTIST=%a" -T "TITLE=%t" -T "ALBUM=%g" -T "DATE=%y" -T "TRACKNUMBER=%n" -T "GENRE=%m" -T "COMMENT=%e" %s -o %d


TOC извлечённого CD

Трек | Старт | Длительность | Начальный сектор | Конечный сектор
---------------------------------------------------------------------
1 | 0:00.00 | 5:18.10 | 0 | 23859
2 | 5:18.10 | 4:50.45 | 23860 | 45654
3 | 10:08.55 | 4:34.71 | 45655 | 66275
4 | 14:43.51 | 3:26.02 | 66276 | 81727
5 | 18:09.53 | 5:14.35 | 81728 | 105312
6 | 23:24.13 | 4:23.37 | 105313 | 125074
7 | 27:47.50 | 3:57.47 | 125075 | 142896
8 | 31:45.22 | 4:24.27 | 142897 | 162723
9 | 36:09.49 | 5:00.31 | 162724 | 185254
10 | 41:10.05 | 2:43.27 | 185255 | 197506


Характеристики диапазона извлечения и сообщения об ошибках

Выбранный диапазон

Имя файла C:\Users\эксперт\Music\Shower - Brain Piracy.wav

Пиковый уровень 97.7 %
Качество диапазона 100.0 %
CRC копии 5E0A08A4
Копирование... OK

Ошибок не произошло


AccurateRip: сводка

Трек 1 точное извлечение (доверие 1) [BC7B44BB]
Трек 2 точное извлечение (доверие 1) [2C96B99C]
Трек 3 точное извлечение (доверие 1) [A96BB1C5]
Трек 4 точное извлечение (доверие 1) [CB18B8ED]
Трек 5 точное извлечение (доверие 1) [1B6E6EB4]
Трек 6 точное извлечение (доверие 1) [1BEACED9]
Трек 7 точное извлечение (доверие 1) [F09BFB62]
Трек 8 точное извлечение (доверие 1) [DFB80342]
Трек 9 точное извлечение (доверие 1) [4ACDE3F8]
Трек 10 точное извлечение (доверие 1) [BA6BAA8E]

Все треки извлечены точно

Конец отчёта


Brain Piracy

Image

Year:1992 (2008 Reissue)
Style:Thrash Metal
Country:Estonia
Archive:Flac+Cue+Log+Scans
Size:447Mb
Source:my CD
Label:Self-Release

Line-Up:
Tamur - vocals,guitar
Tommy - lead guitar
Sven - bass
Ardo - drums

Tracklist:
01. Wizard's Circle 05:52
02. Deep In Lies 07:11
03. Kingdom Of Darkness 05:46
04. Cruelty For Fairness 06:17
05. Familiar Strangers 06:17
06. Humiliator 06:28
07. Wounded Wolwes 06:02
08. Midnight Date 05:03
09. Keep Away 04:12

"Cue"
REM GENRE "Thrash Metal"
REM DATE 1992
REM DISCID 720C6F09
REM COMMENT "ExactAudioCopy v0.99pb5"
PERFORMER "Shower"
TITLE "Humiliator"
FILE "Shower - Humiliator.flac" WAVE
TRACK 01 AUDIO
TITLE "Wizard's Circle"
PERFORMER "Shower"
INDEX 01 00:00:00
TRACK 02 AUDIO
TITLE "Deep In Lies"
PERFORMER "Shower"
INDEX 00 05:49:22
INDEX 01 05:51:23
TRACK 03 AUDIO
TITLE "Kingdom Of Darkness"
PERFORMER "Shower"
INDEX 00 12:59:66
INDEX 01 13:01:68
TRACK 04 AUDIO
TITLE "Cruelty For Fairness"
PERFORMER "Shower"
INDEX 00 18:45:38
INDEX 01 18:47:40
TRACK 05 AUDIO
TITLE "Familiar Strangers"
PERFORMER "Shower"
INDEX 00 25:01:63
INDEX 01 25:03:65
TRACK 06 AUDIO
TITLE "Humiliator"
PERFORMER "Shower"
INDEX 00 31:18:14
INDEX 01 31:20:17
TRACK 07 AUDIO
TITLE "Wounded Wolwes"
PERFORMER "Shower"
INDEX 00 37:45:74
INDEX 01 37:48:01
TRACK 08 AUDIO
TITLE "Midnight Date"
PERFORMER "Shower"
INDEX 00 43:47:66
INDEX 01 43:49:68
TRACK 09 AUDIO
TITLE "Keep Away"
PERFORMER "Shower"
INDEX 01 48:51:70

"Log"
Exact Audio Copy V0.99 prebeta 5 from 4. May 2009

Отчёт EAC об извлечении, выполненном 14. ноября 2014, 12:11

Shower / Humiliator

Дисковод: MATSHITADVD-RAM UJ8A0AS Adapter: 0 ID: 1

Режим чтения : Достоверность
Использование точного потока : Да
Отключение кэша аудио : Да
Использование указателей C2 : Нет

Коррекция смещения при чтении : 102
Способность читать области Lead-in и Lead-out : Нет
Заполнение пропущенных сэмплов тишиной : Да
Удаление блоков с тишиной в начале и конце : Нет
При вычислениях CRC использовались нулевые сэмплы : Да
Интерфейс : Встроенный Win32-интерфейс для Win NT/2000

Выходной формат : Пользовательский кодировщик
Выбранный битрейт : 1024 kBit/s
Качество : Высокий
Добавление ID3-тэга : Нет
Утилита сжатия : C:\Program Files\Exact Audio Copy\FLAC\FLAC.EXE
Дополнительные параметры : -6 -V -T "ARTIST=%a" -T "TITLE=%t" -T "ALBUM=%g" -T "DATE=%y" -T "TRACKNUMBER=%n" -T "GENRE=%m" -T "COMMENT=%e" %s -o %d


TOC извлечённого CD

Трек | Старт | Длительность | Начальный сектор | Конечный сектор
---------------------------------------------------------------------
1 | 0:00.00 | 5:51.23 | 0 | 26347
2 | 5:51.23 | 7:10.45 | 26348 | 58642
3 | 13:01.68 | 5:45.47 | 58643 | 84564
4 | 18:47.40 | 6:16.25 | 84565 | 112789
5 | 25:03.65 | 6:16.27 | 112790 | 141016
6 | 31:20.17 | 6:27.59 | 141017 | 170100
7 | 37:48.01 | 6:01.67 | 170101 | 197242
8 | 43:49.68 | 5:02.02 | 197243 | 219894
9 | 48:51.70 | 4:11.38 | 219895 | 238757


Характеристики диапазона извлечения и сообщения об ошибках

Выбранный диапазон

Имя файла C:\Users\эксперт\Music\Shower - Humiliator.wav

Пиковый уровень 97.7 %
Качество диапазона 100.0 %
CRC копии 19FAFC13
Копирование... OK

Ошибок не произошло


AccurateRip: сводка

Трек 1 нет в базе данных
Трек 2 нет в базе данных
Трек 3 нет в базе данных
Трек 4 нет в базе данных
Трек 5 нет в базе данных
Трек 6 нет в базе данных
Трек 7 нет в базе данных
Трек 8 нет в базе данных
Трек 9 нет в базе данных

Ни одного трека нет в базе AccurateRip

Конец отчёта


Humiliator


Top
 Profile  
 
 
PostPosted: 08 Jan 2016 
Прокъмитолист
User avatar
Joined: 12 Aug 2007
Posts: 6504
Lоcаtion: Санктъ-Петербуркъ
Age: 51
Name: Олекъ
:thanx:

_________________
прокъметол - это музыко, от которово есть прок (ы)


Top
 Profile  
 
Display posts from previous:  Sort by  
Post new topic Reply to topic  [ 2 posts ] 

All times are UTC + 3 hours


Who is online

Users browsing this forum: No registered users and 6 guests


You cannot post new topics in this forum
You cannot reply to topics in this forum
You cannot edit your posts in this forum
You cannot delete your posts in this forum
You cannot post attachments in this forum

Search for:
Яндекс.Метрика
Powered by phpBB © 2000, 2002, 2005, 2007 phpBB Group