\m/ 80's metal \m/

Информационно-аналитический форум "80 см пыли" (In Search We Trust) "У нас никто никуда не спешит"
Me For You - http://me-4u.com
It is currently 16 Nov 2018

All times are UTC + 3 hours

Spoiler
Chat - temporary registration for foreign users (please leave your application here)







Post new topic Reply to topic  [ 15 posts ] 
Author Message
 
PostPosted: 02 Mar 2015 
Хиппей (support team)
User avatar
Joined: 30 Jul 2007
Posts: 108037
Lоcаtion: Киев (Kyiv, UA)
Age: 45
Name: Andrey
ShadowQuest - 2015 - Armoured IV Pain [flac]

Image

Image Image

Image Image

1. Blood of the Pure - 03:36
2. Last Farewell - 04:14
3. All One - 05:32
4. Live Again - 04:40
5. Midnight Sun - 04:29
6. Reach Beyond the Dream - 03:52
7. We Bring Power - 04:21
8. Insatiable Soul - 05:32
9. Take This Life - 03:22
10. Where Memories Grow - 05:08
11. Freewheel Burning (Judas Priest cover)

44:53


mirror: Narod l M-Cloud

Очередной клон Helloween :cry: :esel: :esel: :esel:
Очередной нескончаемый поток качественного модного павера - закос под начало 90-х :dance:
Альбом хитовый и няшный :meloman: Если забыли, что есть такие группы, как Helloween, Primal Fear etc., вам сюда :pardon:

6/10

log
Exact Audio Copy V1.0 beta 3 from 29. August 2011

EAC extraction logfile from 20. February 2015, 18:18

ShadowQuest / Armoured IV Pain

Used drive : ATAPI iHAS122 W Adapter: 2 ID: 0

Read mode : Secure
Utilize accurate stream : Yes
Defeat audio cache : Yes
Make use of C2 pointers : No

Read offset correction : 48
Overread into Lead-In and Lead-Out : No
Fill up missing offset samples with silence : Yes
Delete leading and trailing silent blocks : No
Null samples used in CRC calculations : Yes
Used interface : Installed external ASPI interface

Used output format : User Defined Encoder
Selected bitrate : 1024 kBit/s
Quality : High
Add ID3 tag : No
Command line compressor : C:\Program Files\FLAC\flac.exe
Additional command line options : -V -8 -T "Date=%year%" -T "Genre=%genre%" -T"COMMENT=Ripped by Ilijan" -8 -V %source%


TOC of the extracted CD

Track | Start | Length | Start sector | End sector
---------------------------------------------------------
1 | 0:00.00 | 3:36.31 | 0 | 16230
2 | 3:36.31 | 4:14.39 | 16231 | 35319
3 | 7:50.70 | 5:32.38 | 35320 | 60257
4 | 13:23.33 | 4:40.16 | 60258 | 81273
5 | 18:03.49 | 4:29.25 | 81274 | 101473
6 | 22:32.74 | 3:52.45 | 101474 | 118918
7 | 26:25.44 | 4:21.54 | 118919 | 138547
8 | 30:47.23 | 5:32.16 | 138548 | 163463
9 | 36:19.39 | 3:22.27 | 163464 | 178640
10 | 39:41.66 | 5:10.73 | 178641 | 201963


Range status and errors

Selected range

Filename D:\ИЛИЯН\ShadowQuest - Armoured IV Pain.wav

Peak level 98.8 %
Extraction speed 3.6 X
Range quality 99.9 %
Test CRC EBFC7589
Copy CRC EBFC7589
Copy OK

No errors occurred


AccurateRip summary

Track 1 not present in database
Track 2 not present in database
Track 3 not present in database
Track 4 not present in database
Track 5 not present in database
Track 6 not present in database
Track 7 not present in database
Track 8 not present in database
Track 9 not present in database
Track 10 not present in database

None of the tracks are present in the AccurateRip database

End of status report

---- CUETools DB Plugin V2.1.3

[CTDB TOCID: avgR5r6z2gBkWqO73BOnN75WbFk-] found, Submit result: avgR5r6z2gBkWqO73BOnN75WbFk- has been confirmed
[0a7a306c] (1/1) Accurately ripped


==== Log checksum CD4268B300A8CD631C14D14CC2E4388E7E1D1FB86E13B9A75F0E75749F215D92 ====

cue
REM GENRE "Power Metal"
REM DATE 2015
REM DISCID 890A840A
REM COMMENT "ExactAudioCopy v1.0b3"
PERFORMER "ShadowQuest"
TITLE "Armoured IV Pain"
FILE "ShadowQuest - Armoured IV Pain.flac" WAVE
TRACK 01 AUDIO
TITLE "Blood Of The Pure"
PERFORMER "ShadowQuest"
INDEX 01 00:00:00
TRACK 02 AUDIO
TITLE "Last Farewell"
PERFORMER "ShadowQuest"
INDEX 01 03:36:31
TRACK 03 AUDIO
TITLE "All One"
PERFORMER "ShadowQuest"
INDEX 01 07:50:70
TRACK 04 AUDIO
TITLE "Live Again"
PERFORMER "ShadowQuest"
INDEX 01 13:23:33
TRACK 05 AUDIO
TITLE "Midnight Sun"
PERFORMER "ShadowQuest"
INDEX 01 18:03:49
TRACK 06 AUDIO
TITLE "Reach Beyond The Dream"
PERFORMER "ShadowQuest"
INDEX 01 22:32:74
TRACK 07 AUDIO
TITLE "We Bring Power"
PERFORMER "ShadowQuest"
INDEX 01 26:25:44
TRACK 08 AUDIO
TITLE "Insatiable Soul"
PERFORMER "ShadowQuest"
INDEX 01 30:47:23
TRACK 09 AUDIO
TITLE "Take This Life"
PERFORMER "ShadowQuest"
INDEX 01 36:19:39
TRACK 10 AUDIO
TITLE "Where Memories Grow"
PERFORMER "ShadowQuest"
INDEX 01 39:41:66


Image Image Image Image Image Image

Image Image

Source: http://rutracker.org/forum/viewtopic.php?t=4944576

_________________


Top
 Profile E-mail  
 
 
PostPosted: 02 Mar 2015 
Partisanen - nicht kapitulieren!!
User avatar
Joined: 25 Dec 2011
Posts: 6755
Lоcаtion: партизанские леса
Age: 46
Name: Владимир
а интересно - куда делся каверочек?

зы
понЯл - он тока в цЫфровом варианте...

_________________
One more beer and Heavy Metal and I'm just fine!
старовер, куле... слово "блин" - до сих пор через Ъ говорю


Top
 Profile E-mail  
 
 
PostPosted: 02 Mar 2015 
Хиппей (support team)
User avatar
Joined: 30 Jul 2007
Posts: 108037
Lоcаtion: Киев (Kyiv, UA)
Age: 45
Name: Andrey
32warlord1 wrote:
он тока в цЫфровом варианте...

Угу :oops:

_________________


Top
 Profile E-mail  
 
 
PostPosted: 02 Mar 2015 
Partisanen - nicht kapitulieren!!
User avatar
Joined: 25 Dec 2011
Posts: 6755
Lоcаtion: партизанские леса
Age: 46
Name: Владимир
тока вот что характерно - на бэндкампе его теперь тоже нет :pardon:

_________________
One more beer and Heavy Metal and I'm just fine!
старовер, куле... слово "блин" - до сих пор через Ъ говорю


Top
 Profile E-mail  
 
 
PostPosted: 02 Mar 2015 
Хиппей (support team)
User avatar
Joined: 30 Jul 2007
Posts: 108037
Lоcаtion: Киев (Kyiv, UA)
Age: 45
Name: Andrey
Вовремя ты спёр его :arrow: viewtopic.php?p=226767#p226767 :thanx:

Хотя, раз есть на М-А, значит будет и на японце.

_________________


Top
 Profile E-mail  
 
 
PostPosted: 02 Mar 2015 
Partisanen - nicht kapitulieren!!
User avatar
Joined: 25 Dec 2011
Posts: 6755
Lоcаtion: партизанские леса
Age: 46
Name: Владимир
я его вроде с рутрацкера стянул... в мпЗ/320 :pardon:

_________________
One more beer and Heavy Metal and I'm just fine!
старовер, куле... слово "блин" - до сих пор через Ъ говорю


Top
 Profile E-mail  
 
 
PostPosted: 03 Mar 2015 
Рарник и трушник
User avatar
Joined: 25 Dec 2009
Posts: 8385
Lоcаtion: Москва
Age: 53
Name: Виталий
Это, шведы, как водится, создали очередную модную волну: "винтажный павер" :true:
Мне по кайфу, бальзам! :benya: Главно, шоб в винтажный дэт не перекинулось. :benya:


Top
 Profile  
 
 
PostPosted: 03 Mar 2015 
Доктор энтомологии
User avatar
Joined: 22 Jan 2009
Posts: 9448
Lоcаtion: Даугавпилс
Age: 43
Name: Алексей
Quote:
винтажный дэт

Behemoth что ль :smile:


Top
 Profile  
 
 
PostPosted: 03 Mar 2015 
Рарник и трушник
User avatar
Joined: 25 Dec 2009
Posts: 8385
Lоcаtion: Москва
Age: 53
Name: Виталий
А хрен его, я в дэте не шарю. :vic:

Хотя шарю чуть-чуть, потому как первую волну шведского дэта наблюдал интенсивно в 90-91-м. Не приведи всевышний к повторению сего... :starz:


Top
 Profile  
 
 
PostPosted: 03 Mar 2015 
Хиппей (support team)
User avatar
Joined: 30 Jul 2007
Posts: 108037
Lоcаtion: Киев (Kyiv, UA)
Age: 45
Name: Andrey
32warlord1 wrote:
я его вроде с рутрацкера стянул... в мпЗ/320

:thanx:
Vitaly65 wrote:
Мне по кайфу, бальзам!

Кого-то конкретно напоминают, или это я зациклился на хэлловинщине? :cry:

_________________


Top
 Profile E-mail  
 
 
PostPosted: 03 Mar 2015 
Partisanen - nicht kapitulieren!!
User avatar
Joined: 25 Dec 2011
Posts: 6755
Lоcаtion: партизанские леса
Age: 46
Name: Владимир
Scatterbrain wrote:
Кого-то конкретно напоминают

дык ты состав видел? оне сразу на всех похожи... типические шведы)
Quote:
Patrik "Pata" Johansson - Vocals (Bloodbound, Dawn of Silence)
Peter Huss - Guitars (Shining, Apostasy, ex-Cretoria, ex-Sinergy (live))
Ragnar Widerberg - Guitars (Witherscape)
Jari Kainulainen - Bass (Masterplan, Elias Viljanen, Metal Machine (live), Voluspaa (live), ex-Symfonia, ex-Mess, Devil's Train, ex-Evergrey, ex-Killing Machine, ex-Kotipelto, ex-Stratovarius, ex-Heat)
Kaspar Dahlqvist - Keyboards (Nation, ex-Dionysus, ex-Ilium, ex-Treasure Land, ex-Stormwind, ex-Ride the Sky)
Ronny Milianowicz - Drums (ex-Dionysus, ex-Saturnine, ex-Saint Deamon, ex-Cromonic, ex-Sinergy)

_________________
One more beer and Heavy Metal and I'm just fine!
старовер, куле... слово "блин" - до сих пор через Ъ говорю


Top
 Profile E-mail  
 
 
PostPosted: 03 Mar 2015 
Partisanen - nicht kapitulieren!!
User avatar
Joined: 25 Dec 2011
Posts: 6755
Lоcаtion: партизанские леса
Age: 46
Name: Владимир

_________________
One more beer and Heavy Metal and I'm just fine!
старовер, куле... слово "блин" - до сих пор через Ъ говорю


Top
 Profile E-mail  
 
 
PostPosted: 03 Mar 2015 
Хиппей (support team)
User avatar
Joined: 30 Jul 2007
Posts: 108037
Lоcаtion: Киев (Kyiv, UA)
Age: 45
Name: Andrey
32warlord1 wrote:
дык ты состав видел?

Ща гляжу...
32warlord1 wrote:
ex-Sinergy

32warlord1 wrote:
Masterplan

32warlord1 wrote:
Evergrey

32warlord1 wrote:
Stratovarius

Вот эти названия видел. Первую группу вроде даже слушал когда-то. С бабой на вокале? :vic:
Ну и две вторых тоже слушал, явно разок-два.

_________________


Top
 Profile E-mail  
 
 
PostPosted: 03 Mar 2015 
Partisanen - nicht kapitulieren!!
User avatar
Joined: 25 Dec 2011
Posts: 6755
Lоcаtion: партизанские леса
Age: 46
Name: Владимир
угу... ещё скажи, что Stormwind, Kotipelto. Bloodbound - даже названий не слышал :crazy:

_________________
One more beer and Heavy Metal and I'm just fine!
старовер, куле... слово "блин" - до сих пор через Ъ говорю


Top
 Profile E-mail  
 
 
PostPosted: 03 Mar 2015 
Рарник и трушник
User avatar
Joined: 25 Dec 2009
Posts: 8385
Lоcаtion: Москва
Age: 53
Name: Виталий
Scatterbrain wrote:
Кого-то конкретно напоминают, или это я зациклился на хэлловинщине?

Припев в клипе - конкретная Рапсодия, када вижжит - Присты. А так да, всего понемногу.
Вокалист конечно, лучше поёт, чем выглядит. :benya: Этакий шведо-араб с кондомом на башке. :benya: Не, абрек, замерзший в северной Швеции. :benya:


Top
 Profile  
 
Display posts from previous:  Sort by  
Post new topic Reply to topic  [ 15 posts ] 

All times are UTC + 3 hours


Who is online

Users browsing this forum: No registered users and 3 guests


You cannot post new topics in this forum
You cannot reply to topics in this forum
You cannot edit your posts in this forum
You cannot delete your posts in this forum
You cannot post attachments in this forum

Search for:
Яндекс.Метрика
Powered by phpBB © 2000, 2002, 2005, 2007 phpBB Group