\m/ 80's metal \m/

Информационно-аналитический форум "80 см пыли" (In Search We Trust) "У нас никто никуда не спешит"
Me For You - http://me-4u.com
It is currently 22 Nov 2018

All times are UTC + 3 hours

Spoiler
Chat - temporary registration for foreign users (please leave your application here)







Post new topic Reply to topic  [ 26 posts ]  Go to page Previous  1, 2
Author Message
 
PostPosted: 24 Feb 2015 
Alive Again
User avatar
Joined: 17 Dec 2008
Posts: 4744
Lоcаtion: Курск Воронеж Оскол
Age: 44
Name: Дмитрий
:thanx:


Top
 Profile E-mail  
 
 
PostPosted: 25 Feb 2015 
Генеральный thrasher
User avatar
Joined: 03 Oct 2008
Posts: 3510
Lоcаtion: Ханты-Мансийский АО
Age: 43
Name: Сергей
Image

Year:2009 (2013 Re-Issue)
Style:Thrash Metal/Crossover
Country:U.K.
Audio:Flac+Cue+Log+Scans
Size:474Mb
Source:my CD
Label:Mosh Tuneage

Tracklist:
01. Figure Head Of Pain 03:10
02. Death Support System 02:51
03. Citadel 02:52
04. This Cursed Earth 03:18
05. Stare Not Into The Abyss 04:03
06. Make No Mistake 03:57
07. Hell In Reverse 03:23
08. Within These Walls 04:13
09. Words Written In Blood 04:25
10. Death Becomes Us 01:48
11. Hero Of A Thousand Faces 03:28
12. Fuck You And Your God 03:58
13. Hate In Motion (Instrumental) 03:08
14. Dig Your Own Grave (Sacrilege cover) 01:50
15. Caffeine Pills And Surgical Tape (Instrumental) 05:39
16. Despair Of Another Dawn (Live)
17. Global Warning (Live)
18. Broken Back Of Democracy (Live)
19. Inexorable (Live)
20. Night Winter Death (Live)
21. In The Mouth Of Madness (Live)

"Cue"
REM GENRE "Thrash Metal/Crossover"
REM DATE 2009
REM DISCID F110A010
REM COMMENT "ExactAudioCopy v0.99pb5"
PERFORMER "Suicide Watch"
TITLE "Figure Head Of Pain"
FILE "Suicide Watch - Figure Head Of Pain.flac" WAVE
TRACK 01 AUDIO
TITLE "Figure Head Of Pain"
PERFORMER "Suicide Watch"
INDEX 01 00:00:00
TRACK 02 AUDIO
TITLE "Death Support System"
PERFORMER "Suicide Watch"
INDEX 01 03:10:66
TRACK 03 AUDIO
TITLE "Citadel"
PERFORMER "Suicide Watch"
INDEX 01 06:02:58
TRACK 04 AUDIO
TITLE "This Cursed Earth"
PERFORMER "Suicide Watch"
INDEX 01 08:55:00
TRACK 05 AUDIO
TITLE "Stare Not Into The Abyss"
PERFORMER "Suicide Watch"
INDEX 01 12:13:31
TRACK 06 AUDIO
TITLE "Make No Mistake"
PERFORMER "Suicide Watch"
INDEX 01 16:17:05
TRACK 07 AUDIO
TITLE "Hell In Reverse"
PERFORMER "Suicide Watch"
INDEX 01 20:14:38
TRACK 08 AUDIO
TITLE "Within These Walls"
PERFORMER "Suicide Watch"
INDEX 01 23:37:38
TRACK 09 AUDIO
TITLE "Words Written in Blood"
PERFORMER "Suicide Watch"
INDEX 01 27:51:26
TRACK 10 AUDIO
TITLE "Death Becomes Us"
PERFORMER "Suicide Watch"
INDEX 01 32:16:74
TRACK 11 AUDIO
TITLE "Hero Of A Thousand Faces"
PERFORMER "Suicide Watch"
INDEX 01 34:05:30
TRACK 12 AUDIO
TITLE "Fuck You And Your God"
PERFORMER "Suicide Watch"
INDEX 01 37:34:00
TRACK 13 AUDIO
TITLE "Hate In Motion"
PERFORMER "Suicide Watch"
INDEX 01 41:32:44
TRACK 14 AUDIO
TITLE "Dig Your Own Grave (Sacrilege cover)"
PERFORMER "Suicide Watch"
INDEX 01 44:41:30
TRACK 15 AUDIO
TITLE "Caffeine Pills And Surgical Tape (Instrumental)"
PERFORMER "Suicide Watch"
INDEX 01 46:31:49
TRACK 16 AUDIO
TITLE "Live at the Harlow Square (2005)"
PERFORMER "Suicide Watch"
INDEX 01 52:10:67

"Log"
Exact Audio Copy V0.99 prebeta 5 from 4. May 2009

Отчёт EAC об извлечении, выполненном 24. февраля 2015, 16:16

Suicide Watch / Figure Head Of Pain

Дисковод: MATSHITADVD-RAM UJ8A0AS Adapter: 0 ID: 1

Режим чтения : Достоверность
Использование точного потока : Да
Отключение кэша аудио : Да
Использование указателей C2 : Нет

Коррекция смещения при чтении : 102
Способность читать области Lead-in и Lead-out : Нет
Заполнение пропущенных сэмплов тишиной : Да
Удаление блоков с тишиной в начале и конце : Нет
При вычислениях CRC использовались нулевые сэмплы : Да
Интерфейс : Встроенный Win32-интерфейс для Win NT/2000

Выходной формат : Пользовательский кодировщик
Выбранный битрейт : 1024 kBit/s
Качество : Высокий
Добавление ID3-тэга : Нет
Утилита сжатия : C:\Program Files\Exact Audio Copy\FLAC\FLAC.EXE
Дополнительные параметры : -6 -V -T "ARTIST=%a" -T "TITLE=%t" -T "ALBUM=%g" -T "DATE=%y" -T "TRACKNUMBER=%n" -T "GENRE=%m" -T "COMMENT=%e" %s -o %d


TOC извлечённого CD

Трек | Старт | Длительность | Начальный сектор | Конечный сектор
---------------------------------------------------------------------
1 | 0:00.00 | 3:10.66 | 0 | 14315
2 | 3:10.66 | 2:51.67 | 14316 | 27207
3 | 6:02.58 | 2:52.17 | 27208 | 40124
4 | 8:55.00 | 3:18.31 | 40125 | 55005
5 | 12:13.31 | 4:03.49 | 55006 | 73279
6 | 16:17.05 | 3:57.33 | 73280 | 91087
7 | 20:14.38 | 3:23.00 | 91088 | 106312
8 | 23:37.38 | 4:13.63 | 106313 | 125350
9 | 27:51.26 | 4:25.48 | 125351 | 145273
10 | 32:16.74 | 1:48.31 | 145274 | 153404
11 | 34:05.30 | 3:28.45 | 153405 | 169049
12 | 37:34.00 | 3:58.44 | 169050 | 186943
13 | 41:32.44 | 3:08.61 | 186944 | 201104
14 | 44:41.30 | 1:50.19 | 201105 | 209373
15 | 46:31.49 | 5:39.18 | 209374 | 234816
16 | 52:10.67 | 18:45.65 | 234817 | 319256


Характеристики диапазона извлечения и сообщения об ошибках

Выбранный диапазон

Имя файла C:\Users\эксперт\Music\Suicide Watch - Figure Head Of Pain.wav

Пиковый уровень 99.9 %
Качество диапазона 100.0 %
CRC копии BD6F009E
Копирование... OK

Ошибок не произошло


AccurateRip: сводка

Трек 1 нет в базе данных
Трек 2 нет в базе данных
Трек 3 нет в базе данных
Трек 4 нет в базе данных
Трек 5 нет в базе данных
Трек 6 нет в базе данных
Трек 7 нет в базе данных
Трек 8 нет в базе данных
Трек 9 нет в базе данных
Трек 10 нет в базе данных
Трек 11 нет в базе данных
Трек 12 нет в базе данных
Трек 13 нет в базе данных
Трек 14 нет в базе данных
Трек 15 нет в базе данных
Трек 16 нет в базе данных

Ни одного трека нет в базе AccurateRip

Конец отчёта


Figure Head Of Pain

Концертные трэки идут одной дорожкой.Поэтому в куе 16 трэков.Дрянное продюсирование,если честно... :(


Top
 Profile  
 
 
PostPosted: 25 Feb 2015 
Хиппей (support team)
User avatar
Joined: 30 Jul 2007
Posts: 108264
Lоcаtion: Киев (Kyiv, UA)
Age: 45
Name: Andrey
:thanx:

mirror: Narod l M-Cloud

_________________


Top
 Profile E-mail  
 
 
PostPosted: 25 Feb 2015 
Прокъмитолист
User avatar
Joined: 12 Aug 2007
Posts: 6504
Lоcаtion: Санктъ-Петербуркъ
Age: 51
Name: Олекъ
и еще раз спасибо, Серёг! :thanx:

_________________
прокъметол - это музыко, от которово есть прок (ы)


Top
 Profile  
 
 
PostPosted: 26 Jun 2015 
Пионэръ
User avatar
Joined: 28 Mar 2013
Posts: 12
Lоcаtion: UK
Name: Keith
The Figurehead Of Pain album hides a multitude of sins.

Image

The image is taken from my own CD not downloaded from here. Only 1 track is lossless and the rest are lossy :( Makes me wonder what the source of the audio is.

The Alienation Zone has it to a lesser extent. 2 of the 6 tracks are lossy.


Top
 Profile E-mail  
 
 
PostPosted: 26 Jun 2015 
консэрваторъ
Joined: 11 Aug 2007
Posts: 16208
Lоcаtion: Псков
Age: 44
Name: Сергей
thorbeorn wrote:
This Cursed Earth

Ето трасх что ли?.. :(

SUICIDE WATCH - 'THIS CURSED EARTH' 2013 | +

_________________
THRASH 'EM ALL


Top
 Profile E-mail  
 
Display posts from previous:  Sort by  
Post new topic Reply to topic  [ 26 posts ]  Go to page Previous  1, 2

All times are UTC + 3 hours


Who is online

Users browsing this forum: No registered users and 3 guests


You cannot post new topics in this forum
You cannot reply to topics in this forum
You cannot edit your posts in this forum
You cannot delete your posts in this forum
You cannot post attachments in this forum

Search for:
Яндекс.Метрика
Powered by phpBB © 2000, 2002, 2005, 2007 phpBB Group