\m/ 80's metal \m/

Информационно-аналитический форум "80 см пыли" (In Search We Trust) "У нас никто никуда не спешит"
Me For You - http://me-4u.com
It is currently 20 Nov 2018

All times are UTC + 3 hours

Spoiler
Chat - temporary registration for foreign users (please leave your application here)







Post new topic Reply to topic  [ 26 posts ]  Go to page 1, 2  Next
Author Message
 
PostPosted: 22 Feb 2015 
Генеральный thrasher
User avatar
Joined: 03 Oct 2008
Posts: 3507
Lоcаtion: Ханты-Мансийский АО
Age: 43
Name: Сергей
Image

Year:2014
Style:Thrash Metal/Crossover
Country:U.K.
Audio:Flac+Cue+Log+Scans
Size:141Mb
Source:my CD
Label:Slaney Records

Line-Up:
Simon C Godwin - guitars
Simon Bayliss - bass
Colin Baker - drums
Richard "Rid" White - vocals
Trev Roast - lead guitar

Tracklist:
01. A Good Day to Live (A Better Day to Die) 03:06
02. The Alienation Zone 02:10
03. This Cursed Earth 03:31
04. Student Wankers (Peter & the Test Tube Babies cover) 02:29
05. A Cross to Bear 03:02
06. Motorbreath (Metallica cover) 02:50

"Cue"
REM GENRE "Thrash Metal/Crossover"
REM DATE 2014
REM DISCID 47040706
REM COMMENT "ExactAudioCopy v0.99pb5"
PERFORMER "Suicide Watch"
TITLE "The Alienation Zone"
FILE "Suicide Watch - The Alienation Zone.flac" WAVE
TRACK 01 AUDIO
TITLE "A Good Day to Live (A Better Day to Die)"
PERFORMER "Suicide Watch"
FLAGS DCP
INDEX 01 00:00:00
TRACK 02 AUDIO
TITLE "The Alienation Zone"
PERFORMER "Suicide Watch"
FLAGS DCP
INDEX 01 03:06:67
TRACK 03 AUDIO
TITLE "This Cursed Earth"
PERFORMER "Suicide Watch"
FLAGS DCP
INDEX 01 05:17:26
TRACK 04 AUDIO
TITLE "Student Wankers"
PERFORMER "Suicide Watch"
FLAGS DCP
INDEX 01 08:48:57
TRACK 05 AUDIO
TITLE "A Cross To Bear"
PERFORMER "Suicide Watch"
FLAGS DCP
INDEX 01 11:18:37
TRACK 06 AUDIO
TITLE "Motorbreath"
PERFORMER "Suicide Watch"
FLAGS DCP
INDEX 01 14:21:14

"Log"
Exact Audio Copy V0.99 prebeta 5 from 4. May 2009

Отчёт EAC об извлечении, выполненном 18. февраля 2015, 10:12

Suicide Watch / The Alienation Zone

Дисковод: MATSHITADVD-RAM UJ8A0AS Adapter: 0 ID: 1

Режим чтения : Достоверность
Использование точного потока : Да
Отключение кэша аудио : Да
Использование указателей C2 : Нет

Коррекция смещения при чтении : 102
Способность читать области Lead-in и Lead-out : Нет
Заполнение пропущенных сэмплов тишиной : Да
Удаление блоков с тишиной в начале и конце : Нет
При вычислениях CRC использовались нулевые сэмплы : Да
Интерфейс : Встроенный Win32-интерфейс для Win NT/2000

Выходной формат : Пользовательский кодировщик
Выбранный битрейт : 1024 kBit/s
Качество : Высокий
Добавление ID3-тэга : Нет
Утилита сжатия : C:\Program Files\Exact Audio Copy\FLAC\FLAC.EXE
Дополнительные параметры : -6 -V -T "ARTIST=%a" -T "TITLE=%t" -T "ALBUM=%g" -T "DATE=%y" -T "TRACKNUMBER=%n" -T "GENRE=%m" -T "COMMENT=%e" %s -o %d


TOC извлечённого CD

Трек | Старт | Длительность | Начальный сектор | Конечный сектор
---------------------------------------------------------------------
1 | 0:00.00 | 3:06.67 | 0 | 14016
2 | 3:06.67 | 2:10.34 | 14017 | 23800
3 | 5:17.26 | 3:31.31 | 23801 | 39656
4 | 8:48.57 | 2:29.55 | 39657 | 50886
5 | 11:18.37 | 3:02.52 | 50887 | 64588
6 | 14:21.14 | 2:50.43 | 64589 | 77381


Характеристики диапазона извлечения и сообщения об ошибках

Выбранный диапазон

Имя файла C:\Users\эксперт\Music\Suicide Watch - The Alienation Zone.wav

Пиковый уровень 100.0 %
Качество диапазона 99.9 %
CRC копии 781EDCA9
Копирование... OK

Ошибок не произошло


AccurateRip: сводка

Трек 1 нет в базе данных
Трек 2 нет в базе данных
Трек 3 нет в базе данных
Трек 4 нет в базе данных
Трек 5 нет в базе данных
Трек 6 нет в базе данных

Ни одного трека нет в базе AccurateRip

Конец отчёта


The Alienation Zone (EP)


Top
 Profile  
 
 
PostPosted: 22 Feb 2015 
Хиппей (support team)
User avatar
Joined: 30 Jul 2007
Posts: 108205
Lоcаtion: Киев (Kyiv, UA)
Age: 45
Name: Andrey
:thanx:

mirror: Narod l M-Cloud

_________________


Top
 Profile E-mail  
 
 
PostPosted: 22 Feb 2015 
Хиппей (support team)
User avatar
Joined: 30 Jul 2007
Posts: 108205
Lоcаtion: Киев (Kyiv, UA)
Age: 45
Name: Andrey
Хи. Начал слушать - клон Экзодуса с Соузой? :crazy: :lob: :lob: :lob:

_________________


Top
 Profile E-mail  
 
 
PostPosted: 22 Feb 2015 
Хиппей (support team)
User avatar
Joined: 30 Jul 2007
Posts: 108205
Lоcаtion: Киев (Kyiv, UA)
Age: 45
Name: Andrey
Хороший миник - молодецки задорный и разноплановый :meloman:
Вот только когда вокалист срывается на рык, мне это ой как не нравится :fingal: Лучше бы еще больше бэков добавили, а не этот хрип дурацкий.
В частности, кавер на Метлу из-за этого вот вокала получился.... каловым :(

6/10

Серёг, а ты вот подобные группы и альбомы перед покупкой слушаешь, или доверяешь уже чьим-то мнениям и отзывам?

_________________


Top
 Profile E-mail  
 
 
PostPosted: 22 Feb 2015 
Генеральный thrasher
User avatar
Joined: 03 Oct 2008
Posts: 3507
Lоcаtion: Ханты-Мансийский АО
Age: 43
Name: Сергей
Я думаю,тебе показалось,Андрюха.Тут больше кроссоверная музыка.

А вот поляки Soul Collector на своём альбоме Thrashmageddon очень убедительно изображают Exodus с Соузой.Послушай их.


Top
 Profile  
 
 
PostPosted: 22 Feb 2015 
Генеральный thrasher
User avatar
Joined: 03 Oct 2008
Posts: 3507
Lоcаtion: Ханты-Мансийский АО
Age: 43
Name: Сергей
Прежде чем купить конечно слушаю.Редко бывает,что что-либо взял,не слушая.Обычно если дешево в довесок такое беру.


Top
 Profile  
 
 
PostPosted: 22 Feb 2015 
Генеральный thrasher
User avatar
Joined: 03 Oct 2008
Posts: 3507
Lоcаtion: Ханты-Мансийский АО
Age: 43
Name: Сергей
Если что,ещё два лося группы можно взять на трэкере,либо у Оксаны.


Top
 Profile  
 
 
PostPosted: 22 Feb 2015 
Хиппей (support team)
User avatar
Joined: 30 Jul 2007
Posts: 108205
Lоcаtion: Киев (Kyiv, UA)
Age: 45
Name: Andrey
thorbeorn wrote:
Я думаю,тебе показалось,Андрюха.Тут больше кроссоверная музыка.

А я и не говорил, вообще про стилистику. Exodus 90-й вообще и кроссоверных моментов кучу имеет, и даже чисто хардкоровых :pardon:

thorbeorn wrote:
А вот поляки Soul Collector на своём альбоме Thrashmageddon очень убедительно изображают Exodus с Соузой.Послушай их.

Мы их у нас давно слушали и обговаривали. Вроде здесь же :lloo:

_________________


Top
 Profile E-mail  
 
 
PostPosted: 22 Feb 2015 
Хиппей (support team)
User avatar
Joined: 30 Jul 2007
Posts: 108205
Lоcаtion: Киев (Kyiv, UA)
Age: 45
Name: Andrey
thorbeorn wrote:
Прежде чем купить конечно слушаю.Редко бывает,что что-либо взял,не слушая.Обычно если дешево в довесок такое беру.

Понял :dance:
thorbeorn wrote:
Если что,ещё два лося группы можно взять на трэкере,либо у Оксаны.

:thanx: Пойду и не постесняюсь спереть из заманить их сюда. Не Оксану и трекер, а лосей :lloo:

_________________


Top
 Profile E-mail  
 
 
PostPosted: 22 Feb 2015 
DarkSage
User avatar
Joined: 24 Sep 2009
Posts: 925
Lоcаtion: Moscow
Name: Оксана
Маните, Шура, маните :kamrad:

_________________
Image,Image


Top
 Profile E-mail  
 
 
PostPosted: 22 Feb 2015 
Хиппей (support team)
User avatar
Joined: 30 Jul 2007
Posts: 108205
Lоcаtion: Киев (Kyiv, UA)
Age: 45
Name: Andrey
Уже давно и моментально :thanx:
И переналито ужо, скоро запостю. А пока прусь с дебютника :lob:

_________________


Top
 Profile E-mail  
 
 
PostPosted: 22 Feb 2015 
Генеральный thrasher
User avatar
Joined: 03 Oct 2008
Posts: 3507
Lоcаtion: Ханты-Мансийский АО
Age: 43
Name: Сергей
Купил ещё Figure Head Of Pain (2009).Но :lloo: пока не делал.Надо али нет?


Top
 Profile  
 
 
PostPosted: 22 Feb 2015 
Хиппей (support team)
User avatar
Joined: 30 Jul 2007
Posts: 108205
Lоcаtion: Киев (Kyiv, UA)
Age: 45
Name: Andrey
thorbeorn wrote:
Надо али нет?

А чем мы хуже? :shok:
Не откажусь :thanx:

_________________


Top
 Profile E-mail  
 
 
PostPosted: 22 Feb 2015 
Хиппей (support team)
User avatar
Joined: 30 Jul 2007
Posts: 108205
Lоcаtion: Киев (Kyiv, UA)
Age: 45
Name: Andrey
Suicide Watch - 2005 - Global Warning [flac]

Image Image Image Image

mirror: Narod l M-Cloud

log
Exact Audio Copy V0.99 prebeta 5 from 4. May 2009

EAC extraction logfile from 13. June 2011, 10:20

Suicide Watch / Global Warning

Used drive : TSSTcorpCDDVDW SH-S203D Adapter: 1 ID: 1

Read mode : Secure
Utilize accurate stream : Yes
Defeat audio cache : Yes
Make use of C2 pointers : No

Read offset correction : 6
Overread into Lead-In and Lead-Out : No
Fill up missing offset samples with silence : Yes
Delete leading and trailing silent blocks : No
Null samples used in CRC calculations : Yes
Used interface : Installed external ASPI interface

Used output format : Internal WAV Routines
Sample format : 44.100 Hz; 16 Bit; Stereo


TOC of the extracted CD

Track | Start | Length | Start sector | End sector
---------------------------------------------------------
1 | 0:00.00 | 2:35.68 | 0 | 11692
2 | 2:35.68 | 2:56.65 | 11693 | 24957
3 | 5:32.58 | 2:46.13 | 24958 | 37420
4 | 8:18.71 | 2:41.04 | 37421 | 49499
5 | 11:00.00 | 3:25.45 | 49500 | 64919
6 | 14:25.45 | 2:04.60 | 64920 | 74279
7 | 16:30.30 | 3:04.07 | 74280 | 88086
8 | 19:34.37 | 2:50.38 | 88087 | 100874
9 | 22:25.00 | 3:14.15 | 100875 | 115439
10 | 25:39.15 | 1:39.30 | 115440 | 122894
11 | 27:18.45 | 2:05.00 | 122895 | 132269
12 | 29:23.45 | 3:10.37 | 132270 | 146556
13 | 32:34.07 | 4:28.70 | 146557 | 166726


Range status and errors

Selected range

Filename D:\На телефон\САМОЕ НОВОЕ\Suicide Watch - Global Warning.wav

Peak level 99.6 %
Range quality 100.0 %
Copy CRC BE41C570
Copy OK

No errors occurred


AccurateRip summary

Track 1 accurately ripped (confidence 1) [021E9BFE]
Track 2 accurately ripped (confidence 1) [2A6DEF5D]
Track 3 accurately ripped (confidence 1) [86377729]
Track 4 accurately ripped (confidence 1) [05846053]
Track 5 accurately ripped (confidence 1) [4FC07C36]
Track 6 accurately ripped (confidence 1) [C4891ABD]
Track 7 accurately ripped (confidence 1) [B9DE2FCA]
Track 8 accurately ripped (confidence 1) [4FF520A7]
Track 9 accurately ripped (confidence 1) [BF345875]
Track 10 accurately ripped (confidence 1) [C0EFDE6D]
Track 11 accurately ripped (confidence 1) [88ACDBBA]
Track 12 accurately ripped (confidence 1) [7FBE4DF1]
Track 13 accurately ripped (confidence 1) [3285CD91]

All tracks accurately ripped

End of status report

cue
REM GENRE "Thrash Metal"
REM DATE 2005
REM SOURCE "KMA"
REM DISCID B108AF0D
REM COMMENT "ExactAudioCopy v0.99pb5"
PERFORMER "Suicide Watch"
TITLE "Global Warning"
FILE "Suicide Watch - Global Warning.flac" WAVE
TRACK 01 AUDIO
TITLE "Flesh And Blood"
PERFORMER "Suicide Watch"
INDEX 01 00:00:00
TRACK 02 AUDIO
TITLE "The Truth About Lies"
PERFORMER "Suicide Watch"
INDEX 01 02:35:68
TRACK 03 AUDIO
TITLE "The Devil Rides Out"
PERFORMER "Suicide Watch"
INDEX 00 05:32:08
INDEX 01 05:32:58
TRACK 04 AUDIO
TITLE "By The Time You Read This... I will Be Dead"
PERFORMER "Suicide Watch"
INDEX 01 08:18:71
TRACK 05 AUDIO
TITLE "The Despair Of Another Dawn"
PERFORMER "Suicide Watch"
INDEX 00 10:59:59
INDEX 01 11:00:00
TRACK 06 AUDIO
TITLE "Global Warning"
PERFORMER "Suicide Watch"
INDEX 00 14:25:15
INDEX 01 14:25:45
TRACK 07 AUDIO
TITLE "Death In Triplicate"
PERFORMER "Suicide Watch"
INDEX 00 16:29:73
INDEX 01 16:30:30
TRACK 08 AUDIO
TITLE "Virus [Inside Us]"
PERFORMER "Suicide Watch"
INDEX 00 19:34:15
INDEX 01 19:34:37
TRACK 09 AUDIO
TITLE "In The Mouth Of Madness"
PERFORMER "Suicide Watch"
INDEX 00 22:24:38
INDEX 01 22:25:00
TRACK 10 AUDIO
TITLE "Inexorable"
PERFORMER "Suicide Watch"
INDEX 00 25:38:44
INDEX 01 25:39:15
TRACK 11 AUDIO
TITLE "The Broken Back Of Democracy"
PERFORMER "Suicide Watch"
INDEX 00 27:17:70
INDEX 01 27:18:45
TRACK 12 AUDIO
TITLE "Tomorrow We Rule The World"
PERFORMER "Suicide Watch"
INDEX 00 29:23:41
INDEX 01 29:23:45
TRACK 13 AUDIO
TITLE "Night Winter Death"
PERFORMER "Suicide Watch"
INDEX 00 32:33:63
INDEX 01 32:34:07


Image Image Image Image Image

_________________


Top
 Profile E-mail  
 
 
PostPosted: 22 Feb 2015 
Хиппей (support team)
User avatar
Joined: 30 Jul 2007
Posts: 108205
Lоcаtion: Киев (Kyiv, UA)
Age: 45
Name: Andrey
Suicide Watch - 2010 - The Culling Of Humanity (EP) [flac]

Image Image Image Image

mirror: Narod l M-Cloud

log
Exact Audio Copy V0.99 prebeta 5 from 4. May 2009

EAC extraction logfile from 11. April 2011, 21:14

Suicide Watch / The Culling Of Humanity

Used drive : TSSTcorpCDDVDW SH-S203D Adapter: 1 ID: 1

Read mode : Secure
Utilize accurate stream : Yes
Defeat audio cache : Yes
Make use of C2 pointers : No

Read offset correction : 0
Overread into Lead-In and Lead-Out : No
Fill up missing offset samples with silence : Yes
Delete leading and trailing silent blocks : No
Null samples used in CRC calculations : Yes
Used interface : Installed external ASPI interface

Used output format : Internal WAV Routines
Sample format : 44.100 Hz; 16 Bit; Stereo


TOC of the extracted CD

Track | Start | Length | Start sector | End sector
---------------------------------------------------------
1 | 0:00.00 | 3:16.30 | 0 | 14729
2 | 3:16.30 | 2:58.69 | 14730 | 28148
3 | 6:15.24 | 1:58.30 | 28149 | 37028
4 | 8:13.54 | 2:48.16 | 37029 | 49644
5 | 11:01.70 | 4:52.16 | 49645 | 71560
6 | 15:54.11 | 2:36.37 | 71561 | 83297
7 | 18:30.48 | 3:13.43 | 83298 | 97815


Range status and errors

Selected range

Filename D:\На телефон\САМОЕ НОВОЕ\Suicide Watch - The Culling Of Humanity.wav

Peak level 100.0 %
Range quality 100.0 %
Copy CRC B9F1AEF7
Copy OK

No errors occurred

End of status report

cue
REM GENRE "Thrash Metal"
REM DATE 2010
REM SOURCE "KMA"
REM DISCID 5F051807
REM COMMENT "ExactAudioCopy v0.99pb5"
PERFORMER "Suicide Watch"
TITLE "The Culling Of Humanity"
FILE "Suicide Watch - The Culling Of Humanity.flac" WAVE
TRACK 01 AUDIO
TITLE "Figurehead of Pain"
PERFORMER "Suicide Watch"
INDEX 01 00:00:00
TRACK 02 AUDIO
TITLE "The Devil Rides Out"
PERFORMER "Suicide Watch"
INDEX 01 03:16:30
TRACK 03 AUDIO
TITLE "Death Becomes Us"
PERFORMER "Suicide Watch"
INDEX 01 06:15:24
TRACK 04 AUDIO
TITLE "By The Time You Read This...I Will Be Dead"
PERFORMER "Suicide Watch"
INDEX 01 08:13:54
TRACK 05 AUDIO
TITLE "Night. Winter. Death"
PERFORMER "Suicide Watch"
INDEX 01 11:01:70
TRACK 06 AUDIO
TITLE "The Culling of Humanity"
PERFORMER "Suicide Watch"
INDEX 01 15:54:11
TRACK 07 AUDIO
TITLE "The Culling of Humanity (Armageddon Mix)"
PERFORMER "Suicide Watch"
INDEX 01 18:30:48


Image Image Image Image

_________________


Top
 Profile E-mail  
 
 
PostPosted: 22 Feb 2015 
Генеральный thrasher
User avatar
Joined: 03 Oct 2008
Posts: 3507
Lоcаtion: Ханты-Мансийский АО
Age: 43
Name: Сергей
Лукавишь,Андрюха!Пока ещё не дискография... :benya:


Top
 Profile  
 
 
PostPosted: 22 Feb 2015 
Хиппей (support team)
User avatar
Joined: 30 Jul 2007
Posts: 108205
Lоcаtion: Киев (Kyiv, UA)
Age: 45
Name: Andrey
Да будет. Куды мы денемся. Не спеша то :crazy:

_________________


Top
 Profile E-mail  
 
 
PostPosted: 22 Feb 2015 
Хиппей (support team)
User avatar
Joined: 30 Jul 2007
Posts: 108205
Lоcаtion: Киев (Kyiv, UA)
Age: 45
Name: Andrey
Scatterbrain wrote:
Suicide Watch - 2005 - Global Warning

Пока лучший альбом группы, который успел прослушать.
Здесь еще группа играет первородный (хоть и в наше время) скоростной трэш, не сильно жесткий и без тех противных рыков - вместо них вокалист просто орёт или именно поёт.
Закос идёт в основном на Мэталлику-88 и британские техно-трэшевые группы начала 90-х но... с приятнейшей примесью (флёром) хардкора-кроссовера :meloman:

9/10

_________________


Top
 Profile E-mail  
 
 
PostPosted: 22 Feb 2015 
Прокъмитолист
User avatar
Joined: 12 Aug 2007
Posts: 6504
Lоcаtion: Санктъ-Петербуркъ
Age: 51
Name: Олекъ
:thanx:

_________________
прокъметол - это музыко, от которово есть прок (ы)


Top
 Profile  
 
 
PostPosted: 23 Feb 2015 
Хиппей (support team)
User avatar
Joined: 30 Jul 2007
Posts: 108205
Lоcаtion: Киев (Kyiv, UA)
Age: 45
Name: Andrey
Scatterbrain wrote:
Suicide Watch - 2010 - The Culling Of Humanity (EP)

Тоже хорошо, но как-то не так хитово, как на полном альбоме.

6+/10

_________________


Top
 Profile E-mail  
 
Display posts from previous:  Sort by  
Post new topic Reply to topic  [ 26 posts ]  Go to page 1, 2  Next

All times are UTC + 3 hours


Who is online

Users browsing this forum: No registered users and 2 guests


You cannot post new topics in this forum
You cannot reply to topics in this forum
You cannot edit your posts in this forum
You cannot delete your posts in this forum
You cannot post attachments in this forum

Search for:
Яндекс.Метрика
Powered by phpBB © 2000, 2002, 2005, 2007 phpBB Group