\m/ 80's metal \m/

Информационно-аналитический форум "80 см пыли" (In Search We Trust) "У нас никто никуда не спешит"
Me For You - http://me-4u.com
It is currently 19 Sep 2018

All times are UTC + 3 hours

Spoiler
Chat - temporary registration for foreign users (please leave your application here)







Post new topic Reply to topic  [ 14 posts ] 
Author Message
 
PostPosted: 09 Jan 2015 
Генеральный thrasher
User avatar
Joined: 03 Oct 2008
Posts: 3445
Lоcаtion: Ханты-Мансийский АО
Age: 43
Name: Сергей
Image

Year:2014
Style:Thrash Metal
Country:Germany
Audio:Flac+Cue+Log+Scans
Size:578Mb+530Mb
Source:my CD
Label:StormSpell Records

CD 1:
01. Freece Tricolori (Burning Flesh)06:34
02. Devil Dope 07:46
03. Deathless 02:06
04. Fear of Reality 04:46
05. Born by Accident 04:54
06. Thrash Up 03:56
07. Government (Go Home!) 05:30
08. Silent End 01:40
09. Satanic Butcher 04:46
10. No Tears 04:26
11. Lord Nightmire 03:04
12. Sold Mind 05:22
13. Tortured 06:24
14. Living in Sin 04:06
15. Sudden Darkness 04:02
16. No Tears (Live 1985) 04:04

CD 2:
01. Never Bite the Hand That Feeds 04:20
02. The Cage 05:28
03. Environmental Funeral 07:30
04. Iceflower 07:18
05. The Night That Lasts 1000 Years 06:04
06. All Blind 03:50
07. Death Is My Mission 00:42
08. Cosmopolitan Alien 03:43
09. 95's Mentality 05:50
10. Streptococcus-D 05:43
11. Inner Heaven 05:30
12. Mind Movies 03:56
13. Grey 05:40
14. Environmental Funeral (pre-production) 02:28
15. Neudi Attack (drum solo, live) 03:14

"CD 1 Cue"
REM GENRE "Thrash Metal"
REM DATE 2014
REM DISCID F8113610
REM COMMENT "ExactAudioCopy v0.99pb5"
PERFORMER "Sudden Darkness"
TITLE "Fear of Reality: Anthology CD1"
FILE "Sudden Darkness - Fear of Reality Anthology CD1.flac" WAVE
TRACK 01 AUDIO
TITLE "Freece Tricolori (Burning Flesh)"
PERFORMER "Sudden Darkness"
FLAGS DCP
INDEX 01 00:00:00
TRACK 02 AUDIO
TITLE "Devil Dope"
PERFORMER "Sudden Darkness"
FLAGS DCP
INDEX 01 06:34:00
TRACK 03 AUDIO
TITLE "Deathless"
PERFORMER "Sudden Darkness"
FLAGS DCP
INDEX 01 14:20:00
TRACK 04 AUDIO
TITLE "Fear Of Reality"
PERFORMER "Sudden Darkness"
FLAGS DCP
INDEX 01 16:26:00
TRACK 05 AUDIO
TITLE "Born By Accident"
PERFORMER "Sudden Darkness"
FLAGS DCP
INDEX 01 21:12:00
TRACK 06 AUDIO
TITLE "Thrash Up"
PERFORMER "Sudden Darkness"
FLAGS DCP
INDEX 01 26:06:00
TRACK 07 AUDIO
TITLE "Government (Go Home!)"
PERFORMER "Sudden Darkness"
FLAGS DCP
INDEX 01 30:02:00
TRACK 08 AUDIO
TITLE "Silent End"
PERFORMER "Sudden Darkness"
FLAGS DCP
INDEX 01 35:32:00
TRACK 09 AUDIO
TITLE "Satanic Butcher"
PERFORMER "Sudden Darkness"
FLAGS DCP
INDEX 01 37:12:00
TRACK 10 AUDIO
TITLE "No Tears"
PERFORMER "Sudden Darkness"
FLAGS DCP
INDEX 01 41:58:00
TRACK 11 AUDIO
TITLE "Lord Nightmare"
PERFORMER "Sudden Darkness"
FLAGS DCP
INDEX 01 46:24:00
TRACK 12 AUDIO
TITLE "Solid Mind"
PERFORMER "Sudden Darkness"
FLAGS DCP
INDEX 01 49:28:00
TRACK 13 AUDIO
TITLE "Tortured"
PERFORMER "Sudden Darkness"
FLAGS DCP
INDEX 01 54:50:00
TRACK 14 AUDIO
TITLE "Living In Sin"
PERFORMER "Sudden Darkness"
FLAGS DCP
INDEX 01 61:14:00
TRACK 15 AUDIO
TITLE "Sudden Darkness"
PERFORMER "Sudden Darkness"
FLAGS DCP
INDEX 01 65:20:00
TRACK 16 AUDIO
TITLE "No Tears (Live 1985)"
PERFORMER "Sudden Darkness"
FLAGS DCP
INDEX 01 69:22:00

"CD 2 Cue"
REM GENRE "Thrash Metal"
REM DATE 2014
REM DISCID D410B60F
REM COMMENT "ExactAudioCopy v0.99pb5"
PERFORMER "Economist"
TITLE "Fear of Reality Anthology CD2"
FILE "Economist - Fear of Reality Anthology CD2.flac" WAVE
TRACK 01 AUDIO
TITLE "Never Bite The Hand That Feeds"
PERFORMER "Economist"
FLAGS DCP
INDEX 01 00:00:00
TRACK 02 AUDIO
TITLE "The Cage"
PERFORMER "Economist"
FLAGS DCP
INDEX 01 04:20:00
TRACK 03 AUDIO
TITLE "Environmental Funeral"
PERFORMER "Economist"
FLAGS DCP
INDEX 01 09:48:00
TRACK 04 AUDIO
TITLE "Iceflower"
PERFORMER "Economist"
FLAGS DCP
INDEX 01 17:18:00
TRACK 05 AUDIO
TITLE "The Night That Lasts 1000 Years"
PERFORMER "Economist"
FLAGS DCP
INDEX 01 24:36:00
TRACK 06 AUDIO
TITLE "All Blind"
PERFORMER "Economist"
FLAGS DCP
INDEX 01 30:40:00
TRACK 07 AUDIO
TITLE "Death Is My Mission"
PERFORMER "Economist"
FLAGS DCP
INDEX 01 34:30:00
TRACK 08 AUDIO
TITLE "Cosmopolitan Alien"
PERFORMER "Economist"
FLAGS DCP
INDEX 01 35:12:00
TRACK 09 AUDIO
TITLE "95's Mentality"
PERFORMER "Economist"
FLAGS DCP
INDEX 01 38:55:26
TRACK 10 AUDIO
TITLE "Streptococcus D"
PERFORMER "Economist"
FLAGS DCP
INDEX 01 44:46:21
TRACK 11 AUDIO
TITLE "Inner Heaven"
PERFORMER "Economist"
FLAGS DCP
INDEX 01 50:30:14
TRACK 12 AUDIO
TITLE "Mind Movies"
PERFORMER "Economist"
FLAGS DCP
INDEX 01 56:00:14
TRACK 13 AUDIO
TITLE "Grey"
PERFORMER "Economist"
FLAGS DCP
INDEX 01 59:56:14
TRACK 14 AUDIO
TITLE "Environmental Funeral (Pre-production)"
PERFORMER "Economist"
FLAGS DCP
INDEX 01 65:36:14
TRACK 15 AUDIO
TITLE "Neudi Attack (Drumsolo, live)"
PERFORMER "Economist"
FLAGS DCP
INDEX 01 68:04:14

"CD 1 Log"
Exact Audio Copy V0.99 prebeta 5 from 4. May 2009

Отчёт EAC об извлечении, выполненном 27. сентября 2014, 12:22

Sudden Darkness / Fear of Reality: Anthology CD1

Дисковод: MATSHITADVD-RAM UJ8A0AS Adapter: 0 ID: 1

Режим чтения : Достоверность
Использование точного потока : Да
Отключение кэша аудио : Да
Использование указателей C2 : Нет

Коррекция смещения при чтении : 102
Способность читать области Lead-in и Lead-out : Нет
Заполнение пропущенных сэмплов тишиной : Да
Удаление блоков с тишиной в начале и конце : Нет
При вычислениях CRC использовались нулевые сэмплы : Да
Интерфейс : Встроенный Win32-интерфейс для Win NT/2000

Выходной формат : Пользовательский кодировщик
Выбранный битрейт : 1024 kBit/s
Качество : Высокий
Добавление ID3-тэга : Нет
Утилита сжатия : C:\Program Files\Exact Audio Copy\FLAC\FLAC.EXE
Дополнительные параметры : -6 -V -T "ARTIST=%a" -T "TITLE=%t" -T "ALBUM=%g" -T "DATE=%y" -T "TRACKNUMBER=%n" -T "GENRE=%m" -T "COMMENT=%e" %s -o %d


TOC извлечённого CD

Трек | Старт | Длительность | Начальный сектор | Конечный сектор
---------------------------------------------------------------------
1 | 0:00.00 | 6:34.00 | 0 | 29549
2 | 6:34.00 | 7:46.00 | 29550 | 64499
3 | 14:20.00 | 2:06.00 | 64500 | 73949
4 | 16:26.00 | 4:46.00 | 73950 | 95399
5 | 21:12.00 | 4:54.00 | 95400 | 117449
6 | 26:06.00 | 3:56.00 | 117450 | 135149
7 | 30:02.00 | 5:30.00 | 135150 | 159899
8 | 35:32.00 | 1:40.00 | 159900 | 167399
9 | 37:12.00 | 4:46.00 | 167400 | 188849
10 | 41:58.00 | 4:26.00 | 188850 | 208799
11 | 46:24.00 | 3:04.00 | 208800 | 222599
12 | 49:28.00 | 5:22.00 | 222600 | 246749
13 | 54:50.00 | 6:24.00 | 246750 | 275549
14 | 61:14.00 | 4:06.00 | 275550 | 293999
15 | 65:20.00 | 4:02.00 | 294000 | 312149
16 | 69:22.00 | 4:04.00 | 312150 | 330449


Характеристики диапазона извлечения и сообщения об ошибках

Выбранный диапазон

Имя файла C:\Users\эксперт\Music\Sudden Darkness - Fear of Reality Anthology CD1.wav

Пиковый уровень 100.0 %
Качество диапазона 100.0 %
CRC копии E7C679E5
Копирование... OK

Ошибок не произошло


AccurateRip: сводка

Трек 1 нет в базе данных
Трек 2 нет в базе данных
Трек 3 нет в базе данных
Трек 4 нет в базе данных
Трек 5 нет в базе данных
Трек 6 нет в базе данных
Трек 7 нет в базе данных
Трек 8 нет в базе данных
Трек 9 нет в базе данных
Трек 10 нет в базе данных
Трек 11 нет в базе данных
Трек 12 нет в базе данных
Трек 13 нет в базе данных
Трек 14 нет в базе данных
Трек 15 нет в базе данных
Трек 16 нет в базе данных

Ни одного трека нет в базе AccurateRip

Конец отчёта

"CD 2 Log"
Exact Audio Copy V0.99 prebeta 5 from 4. May 2009

Отчёт EAC об извлечении, выполненном 27. сентября 2014, 19:39

Economist / Fear of Reality Anthology CD2

Дисковод: MATSHITADVD-RAM UJ8A0AS Adapter: 0 ID: 1

Режим чтения : Достоверность
Использование точного потока : Да
Отключение кэша аудио : Да
Использование указателей C2 : Нет

Коррекция смещения при чтении : 102
Способность читать области Lead-in и Lead-out : Нет
Заполнение пропущенных сэмплов тишиной : Да
Удаление блоков с тишиной в начале и конце : Нет
При вычислениях CRC использовались нулевые сэмплы : Да
Интерфейс : Встроенный Win32-интерфейс для Win NT/2000

Выходной формат : Пользовательский кодировщик
Выбранный битрейт : 1024 kBit/s
Качество : Высокий
Добавление ID3-тэга : Нет
Утилита сжатия : C:\Program Files\Exact Audio Copy\FLAC\FLAC.EXE
Дополнительные параметры : -6 -V -T "ARTIST=%a" -T "TITLE=%t" -T "ALBUM=%g" -T "DATE=%y" -T "TRACKNUMBER=%n" -T "GENRE=%m" -T "COMMENT=%e" %s -o %d


TOC извлечённого CD

Трек | Старт | Длительность | Начальный сектор | Конечный сектор
---------------------------------------------------------------------
1 | 0:00.00 | 4:20.00 | 0 | 19499
2 | 4:20.00 | 5:28.00 | 19500 | 44099
3 | 9:48.00 | 7:30.00 | 44100 | 77849
4 | 17:18.00 | 7:18.00 | 77850 | 110699
5 | 24:36.00 | 6:04.00 | 110700 | 137999
6 | 30:40.00 | 3:50.00 | 138000 | 155249
7 | 34:30.00 | 0:42.00 | 155250 | 158399
8 | 35:12.00 | 3:43.26 | 158400 | 175150
9 | 38:55.26 | 5:50.70 | 175151 | 201470
10 | 44:46.21 | 5:43.68 | 201471 | 227263
11 | 50:30.14 | 5:30.00 | 227264 | 252013
12 | 56:00.14 | 3:56.00 | 252014 | 269713
13 | 59:56.14 | 5:40.00 | 269714 | 295213
14 | 65:36.14 | 2:28.00 | 295214 | 306313
15 | 68:04.14 | 3:14.00 | 306314 | 320863


Характеристики диапазона извлечения и сообщения об ошибках

Выбранный диапазон

Имя файла C:\Users\эксперт\Music\Economist - Fear of Reality Anthology CD2.wav

Пиковый уровень 100.0 %
Качество диапазона 100.0 %
CRC копии 3EB915A4
Копирование... OK

Ошибок не произошло


AccurateRip: сводка

Трек 1 нет в базе данных
Трек 2 нет в базе данных
Трек 3 нет в базе данных
Трек 4 нет в базе данных
Трек 5 нет в базе данных
Трек 6 нет в базе данных
Трек 7 нет в базе данных
Трек 8 нет в базе данных
Трек 9 нет в базе данных
Трек 10 нет в базе данных
Трек 11 нет в базе данных
Трек 12 нет в базе данных
Трек 13 нет в базе данных
Трек 14 нет в базе данных
Трек 15 нет в базе данных

Ни одного трека нет в базе AccurateRip

Конец отчёта


Sudden Darkness
Economist


Top
 Profile  
 
 
PostPosted: 09 Jan 2015 
Доктор энтомологии
User avatar
Joined: 22 Jan 2009
Posts: 9319
Lоcаtion: Даугавпилс
Age: 43
Name: Алексей
:true: Серега, спасибо большое!
Вечерком скачаю дома :thanx:


Top
 Profile  
 
 
PostPosted: 09 Jan 2015 
Прокъмитолист
User avatar
Joined: 12 Aug 2007
Posts: 6469
Lоcаtion: Санктъ-Петербуркъ
Age: 50
Name: Олекъ
спасибо, Серёга! :thanx: :true:

_________________
прокъметол - это музыко, от которово есть прок (ы)


Top
 Profile  
 
 
PostPosted: 09 Jan 2015 
Генеральный thrasher
User avatar
Joined: 03 Oct 2008
Posts: 3445
Lоcаtion: Ханты-Мансийский АО
Age: 43
Name: Сергей
Всем пожалуйста!


Top
 Profile  
 
 
PostPosted: 09 Jan 2015 
Доктор энтомологии
User avatar
Joined: 22 Jan 2009
Posts: 9319
Lоcаtion: Даугавпилс
Age: 43
Name: Алексей
ух, какой "economist-объем" объем :dance: два диска, понятно.. )) А некоторые флачки по 200 мегов бывают, это из-за чего зависит? то есть чем больше места на винтах ест, тем лучше качество, престиж? :fingal: извините за вопрос.. Качаю :thanx: В мптрихи потом в феврале перегоню чтоб слушать можно было :dance:
Огромнейшее спасибо, Серег. Пожалуй давно так не хотелось что-то конкретно послушать


Top
 Profile  
 
 
PostPosted: 10 Jan 2015 
Прокъмитолист
User avatar
Joined: 12 Aug 2007
Posts: 6469
Lоcаtion: Санктъ-Петербуркъ
Age: 50
Name: Олекъ
Entomologist wrote:
некоторые флачки по 200 мегов бывают, это из-за чего зависит?

все просто, Лёш. чем длиннее альбом, тем больше вес. а тут двухдисковое издание, каждый диск больше 70 минут - вот и "накапало". был бы альбомец на полчаса - получилось бы в разы меньше :pardon:

_________________
прокъметол - это музыко, от которово есть прок (ы)


Top
 Profile  
 
 
PostPosted: 10 Jan 2015 
Доктор энтомологии
User avatar
Joined: 22 Jan 2009
Posts: 9319
Lоcаtion: Даугавпилс
Age: 43
Name: Алексей
да, тут большие альбомы вышли :thanx: :lob:


Top
 Profile  
 
 
PostPosted: 10 Jan 2015 
ТрэшЭрос
User avatar
Joined: 18 Jul 2011
Posts: 2296
Lоcаtion: Гулькевичи
Age: 43
Name: Александр
:thanx:

_________________
Thrash no trash!!!


Top
 Profile E-mail  
 
 
PostPosted: 12 Jan 2015 
Alive Again
User avatar
Joined: 17 Dec 2008
Posts: 4662
Lоcаtion: Курск Воронеж Оскол
Age: 44
Name: Дмитрий
:thanx:


Top
 Profile E-mail  
 
 
PostPosted: 12 Jan 2015 
Генеральный thrasher
User avatar
Joined: 03 Oct 2008
Posts: 3445
Lоcаtion: Ханты-Мансийский АО
Age: 43
Name: Сергей
Други,вот вы качаете,а мне интересно,кому что больше понравилось.Всё-таки Sudden Darkness грубый трэшак,а Economist более прогрессивная музыка...


Top
 Profile  
 
 
PostPosted: 12 Jan 2015 
Доктор энтомологии
User avatar
Joined: 22 Jan 2009
Posts: 9319
Lоcаtion: Даугавпилс
Age: 43
Name: Алексей
Пока, Серега, не слушал, времени нет совсем. Но обязательно тут отпишусь недельки через две подробней. Мне в бэдкампе знакомство с группой понравилось, тоже болье SD понравился


Top
 Profile  
 
 
PostPosted: 13 Jan 2015 
ТрэшЭрос
User avatar
Joined: 18 Jul 2011
Posts: 2296
Lоcаtion: Гулькевичи
Age: 43
Name: Александр
thorbeorn wrote:
Sudden Darkness грубый трэшак

Насчёт грубости не согласен - по мне так почти идеально всё. А вот Экономист с первого раза не воспринял. Пока. Или уже :umnik:

_________________
Thrash no trash!!!


Top
 Profile E-mail  
 
 
PostPosted: 08 Jul 2015 
Хиппей (support team)
User avatar
Joined: 30 Jul 2007
Posts: 106323
Lоcаtion: Киев (Kyiv, UA)
Age: 45
Name: Andrey
:thanx:

mirror:

Sudden Darkness - iFolder l Narod l M-Cloud

EcoNoMist - iFolder l Narod l M-Cloud

_________________


Top
 Profile E-mail  
 
 
PostPosted: 08 Jul 2015 
Хиппей (support team)
User avatar
Joined: 30 Jul 2007
Posts: 106323
Lоcаtion: Киев (Kyiv, UA)
Age: 45
Name: Andrey
Други,вот вы качаете,а мне интересно,кому что больше понравилось.Всё-таки Sudden Darkness грубый трэшак,а Economist более прогрессивная музыка...

Однозначно первая группа круче намного - здесь и трэшак тяжелый, хардкористый и мощный, и в тоже время легко запоминающийся, а вот Экономист почти альтернативная шняга - стонер метол :fingal:

_________________


Top
 Profile E-mail  
 
Display posts from previous:  Sort by  
Post new topic Reply to topic  [ 14 posts ] 

All times are UTC + 3 hours


Who is online

Users browsing this forum: No registered users and 2 guests


You cannot post new topics in this forum
You cannot reply to topics in this forum
You cannot edit your posts in this forum
You cannot delete your posts in this forum
You cannot post attachments in this forum

Search for:
Яндекс.Метрика
Powered by phpBB © 2000, 2002, 2005, 2007 phpBB Group