\m/ 80's metal \m/

Информационно-аналитический форум "80 см пыли" (In Search We Trust) "У нас никто никуда не спешит"
Me For You - http://me-4u.com
It is currently 20 Sep 2018

All times are UTC + 3 hours

Spoiler
Chat - temporary registration for foreign users (please leave your application here)







Post new topic Reply to topic  [ 7 posts ] 
Author Message
 
PostPosted: 23 Dec 2014 
Генеральный thrasher
User avatar
Joined: 03 Oct 2008
Posts: 3445
Lоcаtion: Ханты-Мансийский АО
Age: 43
Name: Сергей
Image

Year:2014
Style:Thrash Metal
Country:U.S.A.
Audio:Flac+Cue+Log+Scans
Size:256Mb
Source:my CD
Label:StormSpell Records

Line-Up:
Andrew - bass
Eddie - drums
Jeff - guitars
Daniel - guitars
Steven - vocals

Tracklist:
01. Turn It Off 03:22
02. United We Stand.. (Together We Fall) 07:34
03. Key to Power 05:27
04. Tyrant 04:25
05. Savage Metal 03:34
06. Disciples of the Fourth Branch 04:52
07. Sentenced To Death 05:05

"Cue"
REM GENRE "Thrash Metal"
REM DATE 2014
REM DISCID 5E080C07
REM COMMENT "ExactAudioCopy v0.99pb5"
PERFORMER "Skeptor"
TITLE "United We Stand...Together We Fall"
FILE "Skeptor - United We Stand...Together We Fall.flac" WAVE
TRACK 01 AUDIO
TITLE "Turn It Off "
PERFORMER "Skeptor"
FLAGS DCP
INDEX 01 00:00:00
TRACK 02 AUDIO
TITLE "United We Stand… (Together We Fall)"
PERFORMER "Skeptor"
FLAGS DCP
INDEX 01 03:22:04
TRACK 03 AUDIO
TITLE "Key To Power"
PERFORMER "Skeptor"
FLAGS DCP
INDEX 01 10:56:36
TRACK 04 AUDIO
TITLE "Tyrant"
PERFORMER "Skeptor"
FLAGS DCP
INDEX 01 16:23:57
TRACK 05 AUDIO
TITLE "Savage Metal"
PERFORMER "Skeptor"
FLAGS DCP
INDEX 01 20:49:21
TRACK 06 AUDIO
TITLE "Disciples of the Fourth Branch"
PERFORMER "Skeptor"
FLAGS DCP
INDEX 01 24:23:36
TRACK 07 AUDIO
TITLE "Sentenced To Death"
PERFORMER "Skeptor"
FLAGS DCP
INDEX 01 29:15:50

"Log"
Exact Audio Copy V0.99 prebeta 5 from 4. May 2009

Отчёт EAC об извлечении, выполненном 22. сентября 2014, 13:14

Skeptor / United We Stand...Together We Fall

Дисковод: MATSHITADVD-RAM UJ8A0AS Adapter: 0 ID: 1

Режим чтения : Достоверность
Использование точного потока : Да
Отключение кэша аудио : Да
Использование указателей C2 : Нет

Коррекция смещения при чтении : 102
Способность читать области Lead-in и Lead-out : Нет
Заполнение пропущенных сэмплов тишиной : Да
Удаление блоков с тишиной в начале и конце : Нет
При вычислениях CRC использовались нулевые сэмплы : Да
Интерфейс : Встроенный Win32-интерфейс для Win NT/2000

Выходной формат : Пользовательский кодировщик
Выбранный битрейт : 1024 kBit/s
Качество : Высокий
Добавление ID3-тэга : Нет
Утилита сжатия : C:\Program Files\Exact Audio Copy\FLAC\FLAC.EXE
Дополнительные параметры : -6 -V -T "ARTIST=%a" -T "TITLE=%t" -T "ALBUM=%g" -T "DATE=%y" -T "TRACKNUMBER=%n" -T "GENRE=%m" -T "COMMENT=%e" %s -o %d


TOC извлечённого CD

Трек | Старт | Длительность | Начальный сектор | Конечный сектор
---------------------------------------------------------------------
1 | 0:00.00 | 3:22.04 | 0 | 15153
2 | 3:22.04 | 7:34.32 | 15154 | 49235
3 | 10:56.36 | 5:27.21 | 49236 | 73781
4 | 16:23.57 | 4:25.39 | 73782 | 93695
5 | 20:49.21 | 3:34.15 | 93696 | 109760
6 | 24:23.36 | 4:52.14 | 109761 | 131674
7 | 29:15.50 | 5:05.15 | 131675 | 154564


Характеристики диапазона извлечения и сообщения об ошибках

Выбранный диапазон

Имя файла C:\Users\эксперт\Music\Skeptor - United We Stand...Together We Fall.wav

Пиковый уровень 100.0 %
Качество диапазона 100.0 %
CRC копии DC8735AA
Копирование... OK

Ошибок не произошло


AccurateRip: сводка

Трек 1 нет в базе данных
Трек 2 нет в базе данных
Трек 3 нет в базе данных
Трек 4 нет в базе данных
Трек 5 нет в базе данных
Трек 6 нет в базе данных
Трек 7 нет в базе данных

Ни одного трека нет в базе AccurateRip

Конец отчёта


Skeptor


Top
 Profile  
 
 
PostPosted: 23 Dec 2014 
Прокъмитолист
User avatar
Joined: 12 Aug 2007
Posts: 6469
Lоcаtion: Санктъ-Петербуркъ
Age: 50
Name: Олекъ
спасибо, дружище! :true: :drink:

_________________
прокъметол - это музыко, от которово есть прок (ы)


Top
 Profile  
 
 
PostPosted: 23 Dec 2014 
\m/ 80 см сала \m/
User avatar
Joined: 12 Mar 2012
Posts: 2588
Age: 25
Name: Nick
Вот это подгон к НГ, спасибо :true: :true: :true:

_________________
1990 AUROPHON BRAINSTORM (Germany) - lossless
1994 MAUSOLEUM CLASSIX (Belgium-Germany) - lossless
1998 VA - GRIM HARVEST - Complete Metal Massacre Volumes I-XII


Top
 Profile  
 
 
PostPosted: 23 Dec 2014 
Хиппей (support team)
User avatar
Joined: 30 Jul 2007
Posts: 106329
Lоcаtion: Киев (Kyiv, UA)
Age: 45
Name: Andrey
:thanx:

_________________


Top
 Profile E-mail  
 
 
PostPosted: 24 Dec 2014 
ТрэшЭрос
User avatar
Joined: 18 Jul 2011
Posts: 2296
Lоcаtion: Гулькевичи
Age: 43
Name: Александр
:thanx:
Чот вокалёр съел не то :shok: Да и само звучание настораживает :umnik:

_________________
Thrash no trash!!!


Top
 Profile E-mail  
 
 
PostPosted: 24 Dec 2014 
Доктор энтомологии
User avatar
Joined: 22 Jan 2009
Posts: 9320
Lоcаtion: Даугавпилс
Age: 43
Name: Алексей
:lob: Клевый звук и вокал


Top
 Profile  
 
 
PostPosted: 12 Jan 2015 
Alive Again
User avatar
Joined: 17 Dec 2008
Posts: 4668
Lоcаtion: Курск Воронеж Оскол
Age: 44
Name: Дмитрий
:thanx:


Top
 Profile E-mail  
 
Display posts from previous:  Sort by  
Post new topic Reply to topic  [ 7 posts ] 

All times are UTC + 3 hours


Who is online

Users browsing this forum: No registered users and 3 guests


You cannot post new topics in this forum
You cannot reply to topics in this forum
You cannot edit your posts in this forum
You cannot delete your posts in this forum
You cannot post attachments in this forum

Search for:
Яндекс.Метрика
Powered by phpBB © 2000, 2002, 2005, 2007 phpBB Group