\m/ 80's metal \m/

Информационно-аналитический форум "80 см пыли" (In Search We Trust) "У нас никто никуда не спешит"
Железнодорожная биржа - RailAgent
It is currently 22 Jul 2018

All times are UTC + 3 hours

Spoiler
Chat - temporary registration for foreign users (please leave your application here)







Post new topic Reply to topic  [ 9 posts ] 
Author Message
 
PostPosted: 15 Sep 2014 
адын фелософъ прокметолу
User avatar
Joined: 22 Oct 2009
Posts: 2675
Lоcаtion: Сочи
Age: 41
Name: Сергей
В поиске ещё один клон Queensryche
Seventh Sign - Silence of a Wish 1995
Image
1. Infinity 05:02
2. At the Foot of the Rainbow 05:31
3. Page of Yesterday 04:41
4. Bassolica 04:22
5. Find the Words 05:03
6. A Spiritual Sky 06:42
7. Time to Forgive 05:30
8. Silence of a Wish 03:47
9. Bullet 02:58
10. Isolation 05:18
11. One of Us 04:30
12. Consolation 01:28
20 Euro но не факт что диск придёт
битрейд конечно же от 192 и выше ну и от лося бы не отказался


_________________
А теперь ... клоунов и стриптизёрш!


Top
 Profile E-mail  
 
 
PostPosted: 15 Sep 2014 
Прокъмитолист
User avatar
Joined: 12 Aug 2007
Posts: 6421
Lоcаtion: Санктъ-Петербуркъ
Age: 50
Name: Олекъ
есть такая пластиночка, Серёг. откопаю - рипну.
(только у меня команда называется Seven Signs, видимо пришлось менять название из-за авторских прав :oops: )

з.ы. эту темку не прозевал? viewtopic.php?f=104&t=10584

_________________
прокъметол - это музыко, от которово есть прок (ы)


Top
 Profile  
 
 
PostPosted: 15 Sep 2014 
адын фелософъ прокметолу
User avatar
Joined: 22 Oct 2009
Posts: 2675
Lоcаtion: Сочи
Age: 41
Name: Сергей
Спасибо огромное буду ждать :thanx:

_________________
А теперь ... клоунов и стриптизёрш!


Top
 Profile E-mail  
 
 
PostPosted: 15 Sep 2014 
Прокъмитолист
User avatar
Joined: 12 Aug 2007
Posts: 6421
Lоcаtion: Санктъ-Петербуркъ
Age: 50
Name: Олекъ
Seven Signs [1996] Silence Of A Wish
Crystal Entertainment HICD 085-54082

Image

Genre: progressive metal
Origin: Netherlands (Friesland)
Contents: flac/cue/log/scans
Size: 391 MB

Tracklist:
01. Infinity
02. At The Foot Of The Rainbow
03. Page Of Yesterday
04. Bassolica
05. Find The Words
06. A Spiritual Sky
07. Time To Forgive
08. Silence Of A Wish
09. Bullet
10. Isolation
11. One Of Us
12. Consolation

Playtime: 55:35

Lineup:
A the V - vocals
Henk Koster - guitars and keyboards
Paul Steen - guitars
Peter Jansen - bass
Gerrie de Graaf - drums

EAC log
Code:
Exact Audio Copy V1.0 beta 3 from 29. August 2011

EAC extraction logfile from 15. September 2014, 17:46

Seven Signs / Silence Of A Wish

Used drive  : Optiarc DVD RW AD-7240S   Adapter: 2  ID: 0

Read mode               : Secure
Utilize accurate stream : Yes
Defeat audio cache      : Yes
Make use of C2 pointers : No

Read offset correction                      : 48
Overread into Lead-In and Lead-Out          : No
Fill up missing offset samples with silence : Yes
Delete leading and trailing silent blocks   : No
Null samples used in CRC calculations       : Yes
Used interface                              : Native Win32 interface for Win NT & 2000

Used output format : Internal WAV Routines
Sample format      : 44.100 Hz; 16 Bit; Stereo


TOC of the extracted CD

     Track |   Start  |  Length  | Start sector | End sector
    ---------------------------------------------------------
        1  |  0:00.00 |  5:07.17 |         0    |    23041   
        2  |  5:07.17 |  5:36.10 |     23042    |    48251   
        3  | 10:43.27 |  4:45.33 |     48252    |    69659   
        4  | 15:28.60 |  4:26.52 |     69660    |    89661   
        5  | 19:55.37 |  5:07.45 |     89662    |   112731   
        6  | 25:03.07 |  6:46.23 |    112732    |   143204   
        7  | 31:49.30 |  5:33.40 |    143205    |   168219   
        8  | 37:22.70 |  3:50.62 |    168220    |   185531   
        9  | 41:13.57 |  2:59.18 |    185532    |   198974   
       10  | 44:13.00 |  5:20.30 |    198975    |   223004   
       11  | 49:33.30 |  4:31.72 |    223005    |   243401   
       12  | 54:05.27 |  1:30.05 |    243402    |   250156   


Range status and errors

Selected range

     Filename D:\spiralarch\Seven Signs - Silence Of A Wish.wav

     Peak level 99.9 %
     Extraction speed 4.0 X
     Range quality 100.0 %
     Copy CRC 427DF9FD
     Copy OK

No errors occurred


AccurateRip summary

Track  1  accurately ripped (confidence 1)  [29A88ABC]  (AR v1)
Track  2  accurately ripped (confidence 1)  [596B2AED]  (AR v1)
Track  3  accurately ripped (confidence 1)  [19B33B3D]  (AR v1)
Track  4  accurately ripped (confidence 1)  [0560AFD1]  (AR v1)
Track  5  accurately ripped (confidence 1)  [26D5B9BF]  (AR v1)
Track  6  accurately ripped (confidence 1)  [9633908F]  (AR v1)
Track  7  accurately ripped (confidence 1)  [2B731690]  (AR v1)
Track  8  accurately ripped (confidence 1)  [96639CB9]  (AR v1)
Track  9  accurately ripped (confidence 1)  [77F85875]  (AR v1)
Track 10  accurately ripped (confidence 1)  [D39F209B]  (AR v1)
Track 11  accurately ripped (confidence 1)  [E26FBC10]  (AR v1)
Track 12  accurately ripped (confidence 1)  [26CFFA4B]  (AR v1)

All tracks accurately ripped

End of status report

---- CUETools DB Plugin V2.1.4

[CTDB TOCID: w2Gne1HkwnudNMnZYbxVXUb5.hk-] found
Submit result: already submitted
Track | CTDB Status
  1   | (1/1) Accurately ripped
  2   | (1/1) Accurately ripped
  3   | (1/1) Accurately ripped
  4   | (1/1) Accurately ripped
  5   | (1/1) Accurately ripped
  6   | (1/1) Accurately ripped
  7   | (1/1) Accurately ripped
  8   | (1/1) Accurately ripped
  9   | (1/1) Accurately ripped
10   | (1/1) Accurately ripped
11   | (1/1) Accurately ripped
12   | (1/1) Accurately ripped


==== Log checksum 8F8FBD8F55ECEF996CA735C759E5E398270FBD5B38A06533AE9C332826F772E6 ====

Получается так, что сначала команда все же называлась Seventh Sign, и дебютник они выпустили своими силами в 1995-м. На следующий год альбом был переиздан на лейбле Crystal Entertainment, но группа теперь уже называлась Seven Signs - я выкладываю именно этот вариант. Полных сканов пока не будет, закинул в архив те, что нашел в сети.
з.ы. клона Queensryche я тут не услышал :vic:

_________________
прокъметол - это музыко, от которово есть прок (ы)


Last edited by spiralarch on 15 Sep 2014, edited 1 time in total.

Top
 Profile  
 
 
PostPosted: 15 Sep 2014 
адын фелософъ прокметолу
User avatar
Joined: 22 Oct 2009
Posts: 2675
Lоcаtion: Сочи
Age: 41
Name: Сергей
о как быстро :shok:
Вот спасибо :thanx:
Ну у меня такое впечатление насчёт Queensryche возникло при прослушивании песни No Reason To Leave а её кстати нет в трэклисте :vic:

_________________
А теперь ... клоунов и стриптизёрш!


Top
 Profile E-mail  
 
 
PostPosted: 15 Sep 2014 
Прокъмитолист
User avatar
Joined: 12 Aug 2007
Posts: 6421
Lоcаtion: Санктъ-Петербуркъ
Age: 50
Name: Олекъ
wizard12 wrote:
а её кстати нет в трэклисте

судя по тому, что написано в комментарии на ютубе, эти 2 песни должны были войти во второй альбом, но он так и не вышел :pardon:

_________________
прокъметол - это музыко, от которово есть прок (ы)


Top
 Profile  
 
 
PostPosted: 15 Sep 2014 
спирт 100%
User avatar
Joined: 22 Sep 2008
Posts: 4245
Age: 47
Name: Саня
Спасибо! :thanx:


Top
 Profile  
 
 
PostPosted: 27 Sep 2014 
Хиппей (support team)
User avatar
Joined: 30 Jul 2007
Posts: 105206
Lоcаtion: Киев (Kyiv, UA)
Age: 45
Name: Andrey
:thanx:

mirror: Narod l M-Cloud

_________________


Top
 Profile E-mail  
 
 
PostPosted: 27 Sep 2014 
Хиппей (support team)
User avatar
Joined: 30 Jul 2007
Posts: 105206
Lоcаtion: Киев (Kyiv, UA)
Age: 45
Name: Andrey
Слушаю этот альбом. Ну, типичный такой современный прог-павер с привычно пискляво-паверно-проговым вокалистом. Куинсрайха обнаружено не было :vic:
Несколько песенок понравилось :meloman:

_________________


Top
 Profile E-mail  
 
Display posts from previous:  Sort by  
Post new topic Reply to topic  [ 9 posts ] 

All times are UTC + 3 hours


Who is online

Users browsing this forum: No registered users and 3 guests


You cannot post new topics in this forum
You cannot reply to topics in this forum
You cannot edit your posts in this forum
You cannot delete your posts in this forum
You cannot post attachments in this forum

Search for:
Яндекс.Метрика
Powered by phpBB © 2000, 2002, 2005, 2007 phpBB Group