\m/ 80's metal \m/

Информационно-аналитический форум "80 см пыли" (In Search We Trust) "У нас никто никуда не спешит"
Железнодорожная биржа - RailAgent
It is currently 23 Jul 2018

All times are UTC + 3 hours

Spoiler
Chat - temporary registration for foreign users (please leave your application here)







Post new topic Reply to topic  [ 7 posts ] 
Author Message
 
PostPosted: 24 Jul 2014 
Генеральный thrasher
User avatar
Joined: 03 Oct 2008
Posts: 3408
Lоcаtion: Ханты-Мансийский АО
Age: 43
Name: Сергей
Image

Year:2008
Style:Thrash Metal
Country:U.K.
Audio:Flac+Cue+Log+Scans
Size:325Mb
Source:my CD
Label:Copro Records

Line-Up:
Mike Park - bass
Roy Miller - drums
Andy Mellor - guitars
Richard Sherrington - vocals,guitars

Tracklist:
01. Predator 04:22
02. The Aftermath 02:45
03. Keep Your Enemies Closer 05:04
04. 15 Years 04:01
05. Into The Pit (Testament cover) 03:04
06. Spineless 03:21
07. Hatred 03:28
08. Relentless 02:48
09. Bone Collector 04:09
10. Requiem 03:26
11. I See Nothing 02:43

"Cue"
REM GENRE "Thrash Metal"
REM DATE 2008
REM DISCID 99093B0B
REM COMMENT "ExactAudioCopy v0.99pb5"
PERFORMER "Solitary"
TITLE "Requiem"
FILE "Solitary - Requiem.flac" WAVE
TRACK 01 AUDIO
TITLE "Predator"
PERFORMER "Solitary"
INDEX 01 00:00:00
TRACK 02 AUDIO
TITLE "The Aftermath"
PERFORMER "Solitary"
INDEX 00 04:22:64
INDEX 01 04:23:64
TRACK 03 AUDIO
TITLE "Keep Your Enemies Closer"
PERFORMER "Solitary"
INDEX 00 07:09:10
INDEX 01 07:10:10
TRACK 04 AUDIO
TITLE "15 Years"
PERFORMER "Solitary"
INDEX 01 12:14:52
TRACK 05 AUDIO
TITLE "Into The Pit"
PERFORMER "Solitary"
INDEX 00 16:16:00
INDEX 01 16:17:00
TRACK 06 AUDIO
TITLE "Spineless"
PERFORMER "Solitary"
INDEX 00 19:21:04
INDEX 01 19:22:04
TRACK 07 AUDIO
TITLE "Hatred"
PERFORMER "Solitary"
INDEX 00 22:43:08
INDEX 01 22:44:08
TRACK 08 AUDIO
TITLE "Relentless"
PERFORMER "Solitary"
INDEX 01 26:12:39
TRACK 09 AUDIO
TITLE "Bone Collector "
PERFORMER "Solitary"
INDEX 00 29:00:43
INDEX 01 29:01:43
TRACK 10 AUDIO
TITLE "Requiem"
PERFORMER "Solitary"
INDEX 00 33:11:30
INDEX 01 33:12:30
TRACK 11 AUDIO
TITLE "I See Nothing"
PERFORMER "Solitary"
INDEX 00 36:38:44
INDEX 01 36:39:44

"Log"
Exact Audio Copy V0.99 prebeta 5 from 4. May 2009

Отчёт EAC об извлечении, выполненном 16. июля 2014, 13:47

Solitary / Requiem

Дисковод: MATSHITADVD-RAM UJ8A0AS Adapter: 0 ID: 1

Режим чтения : Достоверность
Использование точного потока : Да
Отключение кэша аудио : Да
Использование указателей C2 : Нет

Коррекция смещения при чтении : 102
Способность читать области Lead-in и Lead-out : Нет
Заполнение пропущенных сэмплов тишиной : Да
Удаление блоков с тишиной в начале и конце : Нет
При вычислениях CRC использовались нулевые сэмплы : Да
Интерфейс : Встроенный Win32-интерфейс для Win NT/2000

Выходной формат : Пользовательский кодировщик
Выбранный битрейт : 1024 kBit/s
Качество : Высокий
Добавление ID3-тэга : Нет
Утилита сжатия : C:\Program Files\Exact Audio Copy\FLAC\FLAC.EXE
Дополнительные параметры : -6 -V -T "ARTIST=%a" -T "TITLE=%t" -T "ALBUM=%g" -T "DATE=%y" -T "TRACKNUMBER=%n" -T "GENRE=%m" -T "COMMENT=%e" %s -o %d


TOC извлечённого CD

Трек | Старт | Длительность | Начальный сектор | Конечный сектор
---------------------------------------------------------------------
1 | 0:00.00 | 4:23.64 | 0 | 19788
2 | 4:23.64 | 2:46.21 | 19789 | 32259
3 | 7:10.10 | 5:04.42 | 32260 | 55101
4 | 12:14.52 | 4:02.23 | 55102 | 73274
5 | 16:17.00 | 3:05.04 | 73275 | 87153
6 | 19:22.04 | 3:22.04 | 87154 | 102307
7 | 22:44.08 | 3:28.31 | 102308 | 117938
8 | 26:12.39 | 2:49.04 | 117939 | 130617
9 | 29:01.43 | 4:10.62 | 130618 | 149429
10 | 33:12.30 | 3:27.14 | 149430 | 164968
11 | 36:39.44 | 2:43.34 | 164969 | 177227


Характеристики диапазона извлечения и сообщения об ошибках

Выбранный диапазон

Имя файла C:\Users\эксперт\Music\Solitary - Requiem.wav

Пиковый уровень 100.0 %
Качество диапазона 100.0 %
CRC копии 8959771D
Копирование... OK

Ошибок не произошло


AccurateRip: сводка

Трек 1 нет в базе данных
Трек 2 нет в базе данных
Трек 3 нет в базе данных
Трек 4 нет в базе данных
Трек 5 нет в базе данных
Трек 6 нет в базе данных
Трек 7 нет в базе данных
Трек 8 нет в базе данных
Трек 9 нет в базе данных
Трек 10 нет в базе данных
Трек 11 нет в базе данных

Ни одного трека нет в базе AccurateRip

Конец отчёта


Requiem

Весьма неплохая британская трэш-бригада...В принципе раздаю и на рутрэкере... :punko:


Top
 Profile  
 
 
PostPosted: 24 Jul 2014 
Прокъмитолист
User avatar
Joined: 12 Aug 2007
Posts: 6423
Lоcаtion: Санктъ-Петербуркъ
Age: 50
Name: Олекъ
спасибо, Серёг! :thanx:

_________________
прокъметол - это музыко, от которово есть прок (ы)


Top
 Profile  
 
 
PostPosted: 24 Jul 2014 
\m/ 80 см сала \m/
User avatar
Joined: 12 Mar 2012
Posts: 2582
Age: 25
Name: Nick
thorbeorn wrote:
Label:Copro Records

грайндом запахло :benya:

_________________
1990 AUROPHON BRAINSTORM (Germany) - lossless
1994 MAUSOLEUM CLASSIX (Belgium-Germany) - lossless
1998 VA - GRIM HARVEST - Complete Metal Massacre Volumes I-XII


Top
 Profile  
 
 
PostPosted: 25 Jul 2014 
Хиппей (support team)
User avatar
Joined: 30 Jul 2007
Posts: 105211
Lоcаtion: Киев (Kyiv, UA)
Age: 45
Name: Andrey
:thanx:

mirror: Narod l M-Cloud

_________________


Top
 Profile E-mail  
 
 
PostPosted: 25 Jul 2014 
Генеральный thrasher
User avatar
Joined: 03 Oct 2008
Posts: 3408
Lоcаtion: Ханты-Мансийский АО
Age: 43
Name: Сергей
thorbeorn wrote:
Label:Copro Records

грайндом запахло :benya:


Да уж,название у фирмы не очень. :shok: Но насколько мне помнится они из трэша не только Solitary выпускали.


Top
 Profile  
 
 
PostPosted: 25 Jul 2014 
Хиппей (support team)
User avatar
Joined: 30 Jul 2007
Posts: 105211
Lоcаtion: Киев (Kyiv, UA)
Age: 45
Name: Andrey
Да там у них более чем солидные группы подписаны. Но название хорошее, мягкое такое... :dragon:

_________________


Top
 Profile E-mail  
 
 
PostPosted: 26 Jul 2014 
Хиппей (support team)
User avatar
Joined: 30 Jul 2007
Posts: 105211
Lоcаtion: Киев (Kyiv, UA)
Age: 45
Name: Andrey
Отслушал несколько (3-5) раз альбом. Пардон, но окромя кавера на Тэстамент ничо в ухи в не впало. Слишком прямолинейно сыграно :(
При такой игре обычно скоростью возмещают "пробелы", а здесь и она вялая, как член кошачий после операции на иичках трамвайных рельс :yyy:

_________________


Top
 Profile E-mail  
 
Display posts from previous:  Sort by  
Post new topic Reply to topic  [ 7 posts ] 

All times are UTC + 3 hours


Who is online

Users browsing this forum: No registered users and 2 guests


You cannot post new topics in this forum
You cannot reply to topics in this forum
You cannot edit your posts in this forum
You cannot delete your posts in this forum
You cannot post attachments in this forum

Search for:
Яндекс.Метрика
Powered by phpBB © 2000, 2002, 2005, 2007 phpBB Group