\m/ 80's metal \m/

Информационно-аналитический форум "80 см пыли" (In Search We Trust) "У нас никто никуда не спешит"
Железнодорожная биржа - RailAgent
It is currently 22 Jul 2018

All times are UTC + 3 hours

Spoiler
Chat - temporary registration for foreign users (please leave your application here)







Post new topic Reply to topic  [ 7 posts ] 
Author Message
 
PostPosted: 08 Feb 2014 
Генеральный thrasher
User avatar
Joined: 03 Oct 2008
Posts: 3408
Lоcаtion: Ханты-Мансийский АО
Age: 43
Name: Сергей
Image

Year:1997
Style:Thrash Metal
Country:Czech Republic
Audio:Flac+Cue+Log+Scans
Size:329Mb
Source:oldrock
Label:99 Records

Zdeněk Pradlovský - drums
Martin "Trachtulec" - guitars
Radek "Bája" Kutil - bass
Ales "Alex 93" Nejezchleba - guitars
Peroon 666 - vocals

Tracklist:
01. Dangerous Zone - 04:05
02. Murder of Civilization - 04:09
03. Jump - 03:42
04. Get out from My Dream - 03:52
05. Fuck'n'Roll - 01:33
06. Killers of Believers - 02:59
07. The Hell - 03:59
08. Old Good World - 04:15
09. Days and Nights - 02:29
10. Dance of Mad Man - 03:56
11. Escape from Nowhere - 01:40
12. Follow me to the Edge - 06:28

"Cue"
REM GENRE Metal
REM DATE 1997
REM DISCID 9F0A2E0C
REM COMMENT "ExactAudioCopy v1.0b3"
PERFORMER "SHAARK"
TITLE "Propaganda"
FILE "SHAARK - Propaganda.flac" WAVE
TRACK 01 AUDIO
TITLE "Dangerous Zone"
PERFORMER "SHAARK"
INDEX 01 00:00:00
TRACK 02 AUDIO
TITLE "Murder of Civilization"
PERFORMER "SHAARK"
INDEX 00 04:05:07
INDEX 01 04:06:70
TRACK 03 AUDIO
TITLE "Jump"
PERFORMER "SHAARK"
INDEX 00 08:16:06
INDEX 01 08:17:67
TRACK 04 AUDIO
TITLE "Get out from My Dream"
PERFORMER "SHAARK"
INDEX 01 12:00:12
TRACK 05 AUDIO
TITLE "Fuck'n'Roll"
PERFORMER "SHAARK"
INDEX 00 15:52:63
INDEX 01 15:54:50
TRACK 06 AUDIO
TITLE "Killers of Believers"
PERFORMER "SHAARK"
INDEX 00 17:28:47
INDEX 01 17:30:32
TRACK 07 AUDIO
TITLE "The Hell"
PERFORMER "SHAARK"
INDEX 00 20:29:50
INDEX 01 20:31:37
TRACK 08 AUDIO
TITLE "Old Good World"
PERFORMER "SHAARK"
INDEX 01 24:30:72
TRACK 09 AUDIO
TITLE "Days and Nights"
PERFORMER "SHAARK"
INDEX 01 28:46:05
TRACK 10 AUDIO
TITLE "Dance of Mad Man"
PERFORMER "SHAARK"
INDEX 00 31:15:32
INDEX 01 31:17:20
TRACK 11 AUDIO
TITLE "Escape from Nowhere"
PERFORMER "SHAARK"
INDEX 01 35:14:15
TRACK 12 AUDIO
TITLE "Follow me to the Edge"
PERFORMER "SHAARK"
INDEX 00 36:54:62
INDEX 01 36:58:30

"Log"
Exact Audio Copy V1.0 beta 3 from 29. August 2011

EAC extraction logfile from 4. June 2013, 17:20

SHAARK / Propaganda

Used drive : TSSTcorpCDDVDW SE-S224Q Adapter: 4 ID: 0

Read mode : Secure
Utilize accurate stream : Yes
Defeat audio cache : No
Make use of C2 pointers : Yes

Read offset correction : 6
Overread into Lead-In and Lead-Out : No
Fill up missing offset samples with silence : Yes
Delete leading and trailing silent blocks : No
Null samples used in CRC calculations : Yes
Used interface : Native Win32 interface for Win NT & 2000

Used output format : User Defined Encoder
Selected bitrate : 896 kBit/s
Quality : High
Add ID3 tag : Yes
Command line compressor : C:\Program Files\Exact Audio Copy\FLAC\FLAC.EXE
Additional command line options : -6 -V -T "ARTIST=%artist%" -T "TITLE=%title%" -T "ALBUM=%albumtitle%" -T "DATE=%year%" -T "TRACKNUMBER=%tracknr%" -T "GENRE=%genre%" -T "COMMENT=%comment%" -T "BAND=%albuminterpret%" -T "ALBUMARTIST=%albuminterpret%" -T "COMPOSER=%composer%" %haslyrics%--tag-from-file=LYRICS="%lyricsfile%"%haslyrics% -T "DISCNUMBER=%cdnumber%" -T "TOTALDISCS=%totalcds%" -T "TOTALTRACKS=%numtracks%" %hascover%--picture="%coverfile%"%hascover% %source% -o %dest%


TOC of the extracted CD

Track | Start | Length | Start sector | End sector
---------------------------------------------------------
1 | 0:00.00 | 4:06.70 | 0 | 18519
2 | 4:06.70 | 4:10.72 | 18520 | 37341
3 | 8:17.67 | 3:42.20 | 37342 | 54011
4 | 12:00.12 | 3:54.38 | 54012 | 71599
5 | 15:54.50 | 1:35.57 | 71600 | 78781
6 | 17:30.32 | 3:01.05 | 78782 | 92361
7 | 20:31.37 | 3:59.35 | 92362 | 110321
8 | 24:30.72 | 4:15.08 | 110322 | 129454
9 | 28:46.05 | 2:31.15 | 129455 | 140794
10 | 31:17.20 | 3:56.70 | 140795 | 158564
11 | 35:14.15 | 1:44.15 | 158565 | 166379
12 | 36:58.30 | 6:28.12 | 166380 | 195491


Range status and errors

Selected range

Filename C:\Users\oldrock\Desktop\SHAARK - Propaganda.wav

Peak level 97.7 %
Extraction speed 18.8 X
Range quality 100.0 %
Copy CRC FD1A2B78
Copy OK

No errors occurred


AccurateRip summary

Track 1 not present in database
Track 2 not present in database
Track 3 not present in database
Track 4 not present in database
Track 5 not present in database
Track 6 not present in database
Track 7 not present in database
Track 8 not present in database
Track 9 not present in database
Track 10 not present in database
Track 11 not present in database
Track 12 not present in database

None of the tracks are present in the AccurateRip database

End of status report

==== Log checksum 6512706B2690E87CC5BE4F94E8FCEC909CE4C8A911CF9214DF204A474E88F1E3 ====


Propaganda


Top
 Profile  
 
 
PostPosted: 08 Feb 2014 
Генеральный thrasher
User avatar
Joined: 03 Oct 2008
Posts: 3408
Lоcаtion: Ханты-Мансийский АО
Age: 43
Name: Сергей
У Оксаны выкладывал.Пусть и здесь будет... :lloo:


Top
 Profile  
 
 
PostPosted: 08 Feb 2014 
Дежурный по КУПу
User avatar
Joined: 17 Aug 2007
Posts: 5869
Age: 50
Name: Ге
:thanx:

_________________
http://jp-mania.ru/
http://jp-tourdates.ucoz.ru/


Top
 Profile  
 
 
PostPosted: 08 Feb 2014 
Дежурный по КУПу
User avatar
Joined: 17 Aug 2007
Posts: 5869
Age: 50
Name: Ге
Пожалуй, этот альбом, за исключением седьмой песни, для меня поинтересней будет в отличии от творения 2006 года. Среднетемповый пантерообразный грув с хардкоровым вокалом и почти нойзовыми соляками... короче прелестно. Правда после шестой песни и до девятой включительно шла... ну скажем так откровенная нудятина. И да, даже в той самой "чего то там шестнадцатой" на девятой дорожке :crazy:

PS: А есть у кого альбомы 1995 и 2000 годов? А то у меня они в WMA :shok: :oops:

_________________
http://jp-mania.ru/
http://jp-tourdates.ucoz.ru/


Top
 Profile  
 
 
PostPosted: 08 Feb 2014 
Генеральный thrasher
User avatar
Joined: 03 Oct 2008
Posts: 3408
Lоcаtion: Ханты-Мансийский АО
Age: 43
Name: Сергей
Другие альбомы в нормальном качестве не встречались... :vic:


Top
 Profile  
 
 
PostPosted: 08 Feb 2014 
Прокъмитолист
User avatar
Joined: 12 Aug 2007
Posts: 6421
Lоcаtion: Санктъ-Петербуркъ
Age: 50
Name: Олекъ
:thanx:

_________________
прокъметол - это музыко, от которово есть прок (ы)


Top
 Profile  
 
 
PostPosted: 08 Feb 2014 
Хиппей (support team)
User avatar
Joined: 30 Jul 2007
Posts: 105197
Lоcаtion: Киев (Kyiv, UA)
Age: 45
Name: Andrey
:thanx:

mirror: Narod l M-Cloud

_________________


Top
 Profile E-mail  
 
Display posts from previous:  Sort by  
Post new topic Reply to topic  [ 7 posts ] 

All times are UTC + 3 hours


Who is online

Users browsing this forum: No registered users and 5 guests


You cannot post new topics in this forum
You cannot reply to topics in this forum
You cannot edit your posts in this forum
You cannot delete your posts in this forum
You cannot post attachments in this forum

Search for:
Яндекс.Метрика
Powered by phpBB © 2000, 2002, 2005, 2007 phpBB Group